Bad Boys For Life (2020) 720p BluRay X264 [Dual-Audio][Hindi 5 1 - English 5 1] ESubs - Downloadhub

Torrent Details

Bad Boys for Life (2020) 720p BluRay x264 [Dual-Audio][Hindi 5 1 - English 5 1] ESubs <span style=color:#fc9c6d>- Downloadhub</span>
Bad Boys for Life (2020) 720p BluRay x264 [Dual-Audio][Hindi 5 1 - English 5 1] ESubs <span style=color:#fc9c6d>- Downloadhub</span>

NAME
Bad Boys for Life (2020) 720p BluRay x264 [Dual-Audio][Hindi 5 1 - English 5 1] ESubs - Downloadhub.torrent
CATEGORY
Movies
INFOHASH
2b8ebf13644815d85576c68e2ea8943ac1695a0c
SIZE
1.2 GB in 3 files
ADDED
Uploaded on 01-05-2020 by our crawler pet called "Spidey".
SWARM
0 seeders & 0 peers
RATING
No votes yet.

Please login to vote for this torrent.


Description









Format                                   : AVC

Format/Info                              : Advanced Video Codec

Format profile                           : [email protected]

Format settings                          : CABAC / 8 Ref Frames

Format settings, CABAC                   : Yes

Format settings, RefFrames               : 8 frames

Codec ID                                 : V_MPEG4/ISO/AVC

Duration                                 : 2 h 3 min

Bit rate                                 : 1 072 kb/s

Width                                    : 1 280 pixels

Height                                   : 536 pixels

Display aspect ratio                     : 2.40:1

Frame rate mode                          : Constant

Frame rate                               : 23.976 (24000/1001) FPS

Color space                              : YUV

Chroma subsampling                       : 4:2:0

Bit depth                                : 8 bits

Scan type                                : Progressive

Bits/(Pixel*Frame)                       : 0.065

Stream size                              : 950 MiB (77%)

Writing library                          : x264 core 148 r2638 7599210

Encoding settings                        : cabac=1 / ref=8 / deblock=1:0:0 / analyse=0x3:0x113 / me=umh / subme=9 / psy=1 / psy_rd=1.00:0.00 / mixed_ref=1 / me_range=16 / chroma_me=1 / trellis=2 / 8x8dct=1 / cqm=0 / deadzone=21,11 / fast_pskip=1 / chroma_qp_offset=-2 / threads=12 / lookahead_threads=1 / sliced_threads=0 / nr=0 / decimate=1 / interlaced=0 / bluray_compat=0 / constrained_intra=0 / bframes=3 / b_pyramid=2 / b_adapt=1 / b_bias=0 / direct=3 / weightb=1 / open_gop=0 / weightp=2 / keyint=240 / keyint_min=23 / scenecut=40 / intra_refresh=0 / rc_lookahead=40 / rc=2pass / mbtree=1 / bitrate=1072 / ratetol=1.0 / qcomp=0.60 / qpmin=0 / qpmax=69 / qpstep=4 / cplxblur=20.0 / qblur=0.5 / vbv_maxrate=62500 / vbv_bufsize=78125 / nal_hrd=none / filler=0 / ip_ratio=1.40 / aq=1:1.00

Default                                  : Yes

Forced                                   : No

Color range                              : Limited

Color primaries                          : Generic film

Transfer characteristics                 : BT.709

Matrix coefficients                      : BT.709



Audio #1

ID                                       : 2

Format                                   : AAC

Format/Info                              : Advanced Audio Codec

Format profile                           : HE-AAC / LC

Format settings                          : Explicit

Codec ID                                 : A_AAC-2

Duration                                 : 2 h 3 min

Bit rate                                 : 188 kb/s

Channel(s)                               : 6 channels

Channel positions                        : Front: L C R, Side: L R, LFE

Sampling rate                            : 48.0 kHz / 24.0 kHz

Frame rate                               : 23.438 FPS (1024 SPF)

Compression mode                         : Lossy

Delay relative to video                  : 31 ms

Stream size                              : 167 MiB (14%)

Language                                 : Hindi

Default                                  : Yes

Forced                                   : Yes



Audio #2

ID                                       : 3

Format                                   : AAC

Format/Info                              : Advanced Audio Codec

Format profile                           : LC

Codec ID                                 : A_AAC-2

Duration                                 : 2 h 3 min

Bit rate                                 : 126 kb/s

Channel(s)                               : 6 channels

Channel positions                        : Front: L C R, Side: L R, LFE

Sampling rate                            : 48.0 kHz

Frame rate                               : 46.875 FPS (1024 SPF)

Compression mode                         : Lossy

Delay relative to video                  : 9 ms

Stream size                              : 111 MiB (9%)

Language                                 : English

Default                                  : No

Forced                                   : No



Text

ID                                       : 4

Format                                   : UTF-8

Codec ID                                 : S_TEXT/UTF8

Codec ID/Info                            : UTF-8 Plain Text

Duration                                 : 1 h 57 min

Bit rate                                 : 60 b/s

Count of elements                        : 1544

Stream size                              : 52.3 KiB (0%)

Default                                  : Yes

Forced                                   : No















Discussion

Comments 0

Post Your Comment

Files in this torrent

FILENAMESIZE
Bad Boys for Life 2020 Hindi ORG Dual Audio www.downloadhub.life 720p BluRay ESubs.mkv1.2 GB
Downloadhub.life.txt1.7 KB
Torrent Seed By 1gbits.com.txt166 B

Alternative Torrents for 'Bad Boys for Life BluRay DualAudioHindi English ESubs'.

TORRENT NAMEADDEDSIZESEEDSPEERSHEALTH
Yesterday3.7 GB53302315
9/18/2020286 MB3221911
Yesterday1.5 GB2245928
9/14/20201.8 GB1386235
9/18/20203.7 GB1164120
Yesterday1.5 GB1097285
9/14/2020888 MB978127
9/20/2020895 MB888169
9/18/2020782 MB88775
9/24/20201.3 GB829558
9/20/20201.8 GB81859
Yesterday359 MB775264
9/18/2020286 MB76057
9/11/20203.6 GB743312
9/16/2020901 MB67752