Extraction (2020) [2160p] [HDR] (WEB-DL) [WMAN-LorD]

Torrent Details


Extraction (2020) [2160p] [HDR] (WEB-DL) [WMAN-LorD]

NAME
Extraction (2020) [2160p] [HDR] (WEB-DL) [WMAN-LorD].torrent
CATEGORY
Movies
INFOHASH
c710f0b8fc34ad642af5ed901fa36f11f76a09a3
SIZE
4.7 GB in 2 files
ADDED
Uploaded on 01-05-2020 by our crawler pet called "Spidey".
SWARM
0 seeders & 0 peers
RATING
No votes yet.

Please login to vote for this torrent.


Description

Release info:

>Encoded by: [WMAN-LorD]

>HDR working!

>Source: Blu-ray Original 4k HDR

















[code]

General

Unique ID                   : 193744700053281180352193761004082941671 (0x91C1DF3773EFBD884B5150DABEAFCEE7)

Complete name               : Extraction.2020.2160p.WEB-DL.HDR.x265.10bit.DD5.1.[WMAN-LorD].mkv

Format                      : Matroska

Format version              : Version 4

File size                   : 4.66 GiB

Duration                    : 1 h 57 min

Overall bit rate            : 5 679 kb/s

Movie name                  : Extration (2020) [WMAN-LorD]

Encoded date                : UTC 2020-05-01 17:57:02

Writing application         : mkvmerge v45.0.0 ('Heaven in Pennies') 64-bit

Writing library             : libebml v1.3.10 + libmatroska v1.5.2

Cover                       : Yes

Attachments                 : cover.jpeg



Video

ID                          : 1

Format                      : HEVC

Format/Info                 : High Efficiency Video Coding

Format profile              : Main [email protected]@Main

HDR format                  : SMPTE ST 2086, HDR10 compatible

Codec ID                    : V_MPEGH/ISO/HEVC

Duration                    : 1 h 56 min

Bit rate                    : 4 969 kb/s

Width                       : 3 840 pixels

Height                      : 1 604 pixels

Display aspect ratio        : 2.40:1

Frame rate mode             : Constant

Frame rate                  : 24.000 FPS

Color space                 : YUV

Chroma subsampling          : 4:2:0

Bit depth                   : 10 bits

Bits/(Pixel*Frame)          : 0.034

Stream size                 : 4.03 GiB (86%)

Title                       : [WMAN-LorD]

Language                    : English

Default                     : Yes

Forced                      : No

Color range                 : Limited

Color primaries             : BT.2020

Transfer characteristics    : PQ

Matrix coefficients         : BT.2020 non-constant

Mastering display color pri : Display P3

Mastering display luminance : min: 0.0001 cd/m2, max: 1000 cd/m2

Maximum Content Light Level : 2873 cd/m2

Maximum Frame-Average Light : 482 cd/m2



Audio

ID                          : 2

Format                      : E-AC-3 JOC

Format/Info                 : Enhanced AC-3 with Joint Object Coding

Commercial name             : Dolby Digital Plus with Dolby Atmos

Codec ID                    : A_EAC3

Duration                    : 1 h 57 min

Bit rate mode               : Constant

Bit rate                    : 768 kb/s

Channel(s)                  : 6 channels

Channel layout              : L R C LFE Ls Rs

Sampling rate               : 48.0 kHz

Frame rate                  : 31.250 FPS (1536 SPF)

Compression mode            : Lossy

Stream size                 : 645 MiB (14%)

Title                       : Atmos  / Dolby Digital Plus / 5.1 / 48 kHz / 768 kbps

Language                    : English

Service kind                : Complete Main

Default                     : Yes

Forced                      : No

Complexity index            : 16

Number of dynamic objects   : 15

Bed channel count           : 1 channel

Bed channel configuration   : LFE



Text #1

ID                          : 3

Format                      : UTF-8

Codec ID                    : S_TEXT/UTF8

Codec ID/Info               : UTF-8 Plain Text

Duration                    : 1 h 55 min

Bit rate                    : 19 b/s

Count of elements           : 672

Stream size                 : 16.3 KiB (0%)

Title                       : Portuguese Brazil

Language                    : Portuguese

Default                     : Yes

Forced                      : No



Text #2

ID                          : 4

Format                      : UTF-8

Codec ID                    : S_TEXT/UTF8

Codec ID/Info               : UTF-8 Plain Text

Duration                    : 1 h 22 min

Bit rate                    : 6 b/s

Count of elements           : 167

Stream size                 : 3.83 KiB (0%)

Title                       : Forced

Language                    : English

Default                     : No

Forced                      : Yes



Text #3

ID                          : 5

Format                      : UTF-8

Codec ID                    : S_TEXT/UTF8

Codec ID/Info               : UTF-8 Plain Text

Duration                    : 1 h 34 min

Bit rate                    : 27 b/s

Count of elements           : 717

Stream size                 : 19.1 KiB (0%)

Language                    : English

Default                     : No

Forced                      : No



Text #4

ID                          : 6

Format                      : UTF-8

Codec ID                    : S_TEXT/UTF8

Codec ID/Info               : UTF-8 Plain Text

Duration                    : 1 h 39 min

Bit rate                    : 34 b/s

Count of elements           : 925

Stream size                 : 24.9 KiB (0%)

Title                       : SDH

Language                    : English

Default                     : No

Forced                      : No



Text #5

ID                          : 7

Format                      : UTF-8

Codec ID                    : S_TEXT/UTF8

Codec ID/Info               : UTF-8 Plain Text

Duration                    : 1 h 55 min

Bit rate                    : 34 b/s

Count of elements           : 685

Stream size                 : 29.6 KiB (0%)

Language                    : Arabic

Default                     : No

Forced                      : No



Text #6

ID                          : 8

Format                      : UTF-8

Codec ID                    : S_TEXT/UTF8

Codec ID/Info               : UTF-8 Plain Text

Duration                    : 1 h 55 min

Bit rate                    : 19 b/s

Count of elements           : 691

Stream size                 : 16.3 KiB (0%)

Language                    : Czech

Default                     : No

Forced                      : No



Text #7

ID                          : 9

Format                      : UTF-8

Codec ID                    : S_TEXT/UTF8

Codec ID/Info               : UTF-8 Plain Text

Duration                    : 1 h 55 min

Bit rate                    : 19 b/s

Count of elements           : 673

Stream size                 : 16.4 KiB (0%)

Language                    : Danish

Default                     : No

Forced                      : No



Text #8

ID                          : 10

Format                      : UTF-8

Codec ID                    : S_TEXT/UTF8

Codec ID/Info               : UTF-8 Plain Text

Duration                    : 1 h 55 min

Bit rate                    : 20 b/s

Count of elements           : 680

Stream size                 : 17.6 KiB (0%)

Language                    : German

Default                     : No

Forced                      : No



Text #9

ID                          : 11

Format                      : UTF-8

Codec ID                    : S_TEXT/UTF8

Codec ID/Info               : UTF-8 Plain Text

Duration                    : 1 h 55 min

Bit rate                    : 32 b/s

Count of elements           : 699

Stream size                 : 27.6 KiB (0%)

Language                    : Greek

Default                     : No

Forced                      : No



Text #10

ID                          : 12

Format                      : UTF-8

Codec ID                    : S_TEXT/UTF8

Codec ID/Info               : UTF-8 Plain Text

Duration                    : 1 h 55 min

Bit rate                    : 19 b/s

Count of elements           : 697

Stream size                 : 16.5 KiB (0%)

Language                    : Spanish

Default                     : No

Forced                      : No



Text #11

ID                          : 13

Format                      : UTF-8

Codec ID                    : S_TEXT/UTF8

Codec ID/Info               : UTF-8 Plain Text

Duration                    : 1 h 55 min

Bit rate                    : 20 b/s

Count of elements           : 722

Stream size                 : 17.1 KiB (0%)

Title                       : European

Language                    : Spanish

Default                     : No

Forced                      : No



Text #12

ID                          : 14

Format                      : UTF-8

Codec ID                    : S_TEXT/UTF8

Codec ID/Info               : UTF-8 Plain Text

Duration                    : 1 h 55 min

Bit rate                    : 19 b/s

Count of elements           : 674

Stream size                 : 16.1 KiB (0%)

Language                    : Finnish

Default                     : No

Forced                      : No



Text #13

ID                          : 15

Format                      : UTF-8

Codec ID                    : S_TEXT/UTF8

Codec ID/Info               : UTF-8 Plain Text

Duration                    : 1 h 55 min

Bit rate                    : 20 b/s

Count of elements           : 689

Stream size                 : 17.1 KiB (0%)

Language                    : French

Default                     : No

Forced                      : No



Text #14

ID                          : 16

Format                      : UTF-8

Codec ID                    : S_TEXT/UTF8

Codec ID/Info               : UTF-8 Plain Text

Duration                    : 1 h 55 min

Bit rate                    : 33 b/s

Count of elements           : 677

Stream size                 : 28.1 KiB (0%)

Language                    : Hebrew

Default                     : No

Forced                      : No



Text #15

ID                          : 17

Format                      : UTF-8

Codec ID                    : S_TEXT/UTF8

Codec ID/Info               : UTF-8 Plain Text

Duration                    : 1 h 55 min

Bit rate                    : 19 b/s

Count of elements           : 674

Stream size                 : 16.2 KiB (0%)

Language                    : Hungarian

Default                     : No

Forced                      : No



Text #16

ID                          : 18

Format                      : UTF-8

Codec ID                    : S_TEXT/UTF8

Codec ID/Info               : UTF-8 Plain Text

Duration                    : 1 h 55 min

Bit rate                    : 20 b/s

Count of elements           : 668

Stream size                 : 17.1 KiB (0%)

Language                    : Indonesian

Default                     : No

Forced                      : No



Text #17

ID                          : 19

Format                      : UTF-8

Codec ID                    : S_TEXT/UTF8

Codec ID/Info               : UTF-8 Plain Text

Duration                    : 1 h 55 min

Bit rate                    : 19 b/s

Count of elements           : 664

Stream size                 : 16.8 KiB (0%)

Language                    : Italian

Default                     : No

Forced                      : No



Text #18

ID                          : 20

Format                      : UTF-8

Codec ID                    : S_TEXT/UTF8

Codec ID/Info               : UTF-8 Plain Text

Duration                    : 1 h 55 min

Bit rate                    : 20 b/s

Count of elements           : 689

Stream size                 : 17.0 KiB (0%)

Language                    : Japanese

Default                     : No

Forced                      : No



Text #19

ID                          : 21

Format                      : UTF-8

Codec ID                    : S_TEXT/UTF8

Codec ID/Info               : UTF-8 Plain Text

Duration                    : 1 h 55 min

Bit rate                    : 23 b/s

Count of elements           : 679

Stream size                 : 20.0 KiB (0%)

Language                    : Korean

Default                     : No

Forced                      : No



Text #20

ID                          : 22

Format                      : UTF-8

Codec ID                    : S_TEXT/UTF8

Codec ID/Info               : UTF-8 Plain Text

Duration                    : 1 h 55 min

Bit rate                    : 18 b/s

Count of elements           : 655

Stream size                 : 16.0 KiB (0%)

Language                    : Norwegian Bokmal

Default                     : No

Forced                      : No



Text #21

ID                          : 23

Format                      : UTF-8

Codec ID                    : S_TEXT/UTF8

Codec ID/Info               : UTF-8 Plain Text

Duration                    : 1 h 55 min

Bit rate                    : 19 b/s

Count of elements           : 667

Stream size                 : 16.1 KiB (0%)

Language                    : Dutch

Default                     : No

Forced                      : No



Text #22

ID                          : 24

Format                      : UTF-8

Codec ID                    : S_TEXT/UTF8

Codec ID/Info               : UTF-8 Plain Text

Duration                    : 1 h 55 min

Bit rate                    : 17 b/s

Count of elements           : 668

Stream size                 : 14.4 KiB (0%)

Language                    : Polish

Default                     : No

Forced                      : No



Text #23

ID                          : 25

Format                      : UTF-8

Codec ID                    : S_TEXT/UTF8

Codec ID/Info               : UTF-8 Plain Text

Duration                    : 1 h 55 min

Bit rate                    : 20 b/s

Count of elements           : 691

Stream size                 : 16.9 KiB (0%)

Language                    : Portuguese

Default                     : No

Forced                      : No



Text #24

ID                          : 26

Format                      : UTF-8

Codec ID                    : S_TEXT/UTF8

Codec ID/Info               : UTF-8 Plain Text

Duration                    : 1 h 55 min

Bit rate                    : 23 b/s

Count of elements           : 687

Stream size                 : 19.5 KiB (0%)

Language                    : Romanian

Default                     : No

Forced                      : No



Text #25

ID                          : 27

Format                      : UTF-8

Codec ID                    : S_TEXT/UTF8

Codec ID/Info               : UTF-8 Plain Text

Duration                    : 1 h 55 min

Bit rate                    : 30 b/s

Count of elements           : 675

Stream size                 : 26.2 KiB (0%)

Language                    : Russian

Default                     : No

Forced                      : No



Text #26

ID                          : 28

Format                      : UTF-8

Codec ID                    : S_TEXT/UTF8

Codec ID/Info               : UTF-8 Plain Text

Duration                    : 1 h 55 min

Bit rate                    : 19 b/s

Count of elements           : 620

Stream size                 : 16.9 KiB (0%)

Language                    : Swedish

Default                     : No

Forced                      : No



Text #27

ID                          : 29

Format                      : UTF-8

Codec ID                    : S_TEXT/UTF8

Codec ID/Info               : UTF-8 Plain Text

Duration                    : 1 h 55 min

Bit rate                    : 51 b/s

Count of elements           : 681

Stream size                 : 43.2 KiB (0%)

Language                    : Thai

Default                     : No

Forced                      : No



Text #28

ID                          : 30

Format                      : UTF-8

Codec ID                    : S_TEXT/UTF8

Codec ID/Info               : UTF-8 Plain Text

Duration                    : 1 h 55 min

Bit rate                    : 19 b/s

Count of elements           : 661

Stream size                 : 16.7 KiB (0%)

Language                    : Turkish

Default                     : No

Forced                      : No



Text #29

ID                          : 31

Format                      : UTF-8

Codec ID                    : S_TEXT/UTF8

Codec ID/Info               : UTF-8 Plain Text

Duration                    : 1 h 55 min

Bit rate                    : 28 b/s

Count of elements           : 674

Stream size                 : 24.3 KiB (0%)

Language                    : Vietnamese

Default                     : No

Forced                      : No



Text #30

ID                          : 32

Format                      : UTF-8

Codec ID                    : S_TEXT/UTF8

Codec ID/Info               : UTF-8 Plain Text

Duration                    : 1 h 55 min

Bit rate                    : 22 b/s

Count of elements           : 681

Stream size                 : 19.2 KiB (0%)

Title                       : Simplified

Language                    : Chinese

Default                     : No

Forced                      : No



Text #31

ID                          : 33

Format                      : UTF-8

Codec ID                    : S_TEXT/UTF8

Codec ID/Info               : UTF-8 Plain Text

Duration                    : 1 h 55 min

Bit rate                    : 21 b/s

Count of elements           : 744

Stream size                 : 18.5 KiB (0%)

Title                       : Traditional

Language                    : Chinese

Default                     : No

Forced                      : No









[/code]





Discussion

Comments 0

Post Your Comment

Files in this torrent

FILENAMESIZE
Extraction.2020.2160p.WEB-DL.HDR.x265.10bit.DD5.1.[WMAN-LorD].mkv4.7 GB
[TGx]Downloaded from torrentgalaxy.to .txt585 B

Alternative Torrents for 'Extraction p HDR WMANLorD'.

TORRENT NAMEADDEDSIZESEEDSPEERSHEALTH
6/22/20202 GB38123
6/16/20201.5 GB2215
6/19/20201.9 GB19710
6/25/20201.9 GB1884
6/16/202011.4 GB12213
6/28/20203.4 GB9326
6/28/20206.6 GB83106
6/22/20203.2 GB668
6/18/20209.6 GB4729
6/25/202025.2 GB4626
6/16/20201.5 GB435
6/22/20201.4 GB424
6/22/20201.4 GB427
6/25/202025.5 GB4126
6/17/20201.4 GB394