Comedy Central Roast Of Bruce Willis (2018) (1080p AMZN Webrip X265 10bit EAC3 5.1 - ArcX)[TAoE]

Torrent Details


Comedy Central Roast Of Bruce Willis (2018) (1080p AMZN Webrip x265 10bit EAC3 5.1 - ArcX)<span style=color:#fc9c6d>[TAoE]</span>

NAME
Comedy Central Roast Of Bruce Willis (2018) (1080p AMZN Webrip x265 10bit EAC3 5.1 - ArcX)[TAoE].torrent
CATEGORY
Television
INFOHASH
205da6dfa79b0a6fe734f19ff8c8fab397031664
SIZE
2.9 GB in 1 file
ADDED
Uploaded on 02-05-2020 by our crawler pet called "Spidey".
SWARM
0 seeders & 0 peers
RATING
No votes yet.

Please login to vote for this torrent.


Description









Comedy Central Roast of Bruce Willis (2018) IMDB















Media Information



General

Unique ID                                : 49194969405034163186278761842376488116 (0x25029B418E079D51E377D32A3850B4B4)

Complete name                            : Comedy Central Roast Of Bruce Willis (2018) (1080p AMZN Webrip x265 10bit EAC3 5.1 - ArcX)[TAoE].mkv

Format                                   : Matroska

Format version                           : Version 4

File size                                : 2.88 GiB

Duration                                 : 1 h 23 min

Overall bit rate                         : 4 920 kb/s

Movie name                               : Comedy Central Roast Of Bruce Willis (2018) (1080p AMZN Webrip x265 10bit EAC3 5.1 - ArcX)[TAoE].mkv

Writing application                      : Lavf58.29.100

Writing library                          : Lavf58.29.100

ErrorDetectionType                       : Per level 1



Video

ID                                       : 1

Format                                   : HEVC

Format/Info                              : High Efficiency Video Coding

Format profile                           : Main [email protected]@Main

Codec ID                                 : V_MPEGH/ISO/HEVC

Duration                                 : 1 h 23 min

Bit rate                                 : 4 692 kb/s

Width                                    : 1 920 pixels

Height                                   : 1 080 pixels

Display aspect ratio                     : 16:9

Frame rate mode                          : Constant

Frame rate                               : 29.970 (30000/1001) FPS

Color space                              : YUV

Chroma subsampling                       : 4:2:0

Bit depth                                : 10 bits

Bits/(Pixel*Frame)                       : 0.075

Stream size                              : 2.74 GiB (95%)

Title                                    : Encoded by ArcX for TAoE

Writing library                          : x265 3.2.1+1-b5c86a64bbbe:[Linux][GCC 9.2.1][64 bit] 10bit

Encoding settings                        : cpuid=1111039 / frame-threads=2 / wpp / no-pmode / no-pme / no-psnr / no-ssim / log-level=2 / input-csp=1 / input-res=1920x1080 / interlace=0 / total-frames=0 / level-idc=0 / high-tier=1 / uhd-bd=0 / ref=4 / no-allow-non-conformance / no-repeat-headers / annexb / no-aud / no-hrd / info / hash=0 / no-temporal-layers / open-gop / min-keyint=25 / keyint=250 / gop-lookahead=0 / bframes=8 / b-adapt=2 / b-pyramid / bframe-bias=0 / rc-lookahead=80 / lookahead-slices=4 / scenecut=40 / radl=0 / no-splice / no-intra-refresh / ctu=64 / min-cu-size=8 / no-rect / no-amp / max-tu-size=32 / tu-inter-depth=1 / tu-intra-depth=1 / limit-tu=0 / rdoq-level=2 / dynamic-rd=0.00 / no-ssim-rd / signhide / no-tskip / nr-intra=0 / nr-inter=0 / no-constrained-intra / no-strong-intra-smoothing / max-merge=3 / limit-refs=3 / limit-modes / me=3 / subme=5 / merange=57 / temporal-mvp / no-hme / weightp / no-weightb / no-analyze-src-pics / deblock=0:0 / sao / no-sao-non-deblock / rd=4 / selective-sao=4 / no-early-skip / rskip / no-fast-intra / no-tskip-fast / no-cu-lossless / no-b-intra / no-splitrd-skip / rdpenalty=0 / psy-rd=1.30 / psy-rdoq=2.00 / no-rd-refine / no-lossless / cbqpoffs=0 / crqpoffs=0 / rc=crf / crf=20.0 / qcomp=0.60 / qpstep=4 / stats-write=0 / stats-read=0 / ipratio=1.40 / pbratio=1.30 / aq-mode=4 / aq-strength=1.10 / cutree / zone-count=0 / no-strict-cbr / qg-size=32 / no-rc-grain / qpmax=69 / qpmin=0 / no-const-vbv / sar=1 / overscan=0 / videoformat=5 / range=0 / colorprim=2 / transfer=2 / colormatrix=2 / chromaloc=0 / display-window=0 / cll=0,0 / min-luma=0 / max-luma=1023 / log2-max-poc-lsb=8 / vui-timing-info / vui-hrd-info / slices=1 / no-opt-qp-pps / no-opt-ref-list-length-pps / no-multi-pass-opt-rps / scenecut-bias=0.05 / no-opt-cu-delta-qp / no-aq-motion / no-hdr / no-hdr-opt / no-dhdr10-opt / no-idr-recovery-sei / analysis-reuse-level=5 / scale-factor=0 / refine-intra=0 / refine-inter=0 / refine-mv=1 / refine-ctu-distortion=0 / no-limit-sao / ctu-info=0 / no-lowpass-dct / refine-analysis-type=0 / copy-pic=1 / max-ausize-factor=1.0 / no-dynamic-refine / no-single-sei / no-hevc-aq / no-svt / no-field / qp-adaptation-range=1.00

Default                                  : Yes

Forced                                   : No

Color range                              : Limited



Audio

ID                                       : 2

Format                                   : E-AC-3

Format/Info                              : Enhanced AC-3

Commercial name                          : Dolby Digital Plus

Codec ID                                 : A_EAC3

Duration                                 : 1 h 23 min

Bit rate mode                            : Constant

Bit rate                                 : 224 kb/s

Channel(s)                               : 2 channels

Channel layout                           : L R

Sampling rate                            : 48.0 kHz

Frame rate                               : 31.250 FPS (1536 SPF)

Bit depth                                : 32 bits

Compression mode                         : Lossy

Stream size                              : 134 MiB (5%)

Language                                 : English

Service kind                             : Complete Main

Default                                  : Yes

Forced                                   : No



Text

ID                                       : 3

Format                                   : UTF-8

Codec ID                                 : S_TEXT/UTF8

Codec ID/Info                            : UTF-8 Plain Text

Duration                                 : 1 h 23 min

Bit rate                                 : 95 b/s

Count of elements                        : 1811

Stream size                              : 58.5 KiB (0%)

Title                                    : SDH

Language                                 : English

Default                                  : No

Forced                                   : No





Source

1080p AMZN WEB-DL TEPES



Hello everyone,

We are TAoE, a small team of passionate encoders who love encoding. We try our best to provide you with high quality releases.

If you would like to join the team just drop us a comment or send us a message.





.........................................................................................................................................

Discussion

Comments 0

Post Your Comment

Files in this torrent

FILENAMESIZE
Comedy Central Roast Of Bruce Willis (2018) (1080p AMZN Webrip x265 10bit EAC3 5.1 - ArcX)[TAoE].mkv2.9 GB

Alternative Torrents for 'Comedy Central Roast Of Bruce Willis bit EAC ArcX'.

There are no alternative torrents found.