Fantasy Island 2020 Unrated BDRip 1080p SeleZen

Torrent Details

Fantasy Island 2020 Unrated BDRip 1080p<span style=color:#fc9c6d> seleZen</span>
Fantasy Island 2020 Unrated BDRip 1080p<span style=color:#fc9c6d> seleZen</span>

NAME
Fantasy Island 2020 Unrated BDRip 1080p seleZen.torrent
CATEGORY
Movies
INFOHASH
2f3f41300b03472632b0bef824deba756bbb9e03
SIZE
10.2 GB in 1 file
ADDED
Uploaded on 02-05-2020 by our crawler pet called "Spidey".
SWARM
0 seeders & 0 peers
RATING
No votes yet.

Please login to vote for this torrent.


Description

Информация о фильме

Название: Остров фантазий

Оригинальное название: Fantasy Island

Год выхода: 2020

Жанр: Ужасы, триллер, фантастика

Режиссер: Джефф Уодлоу

В ролях: Майкл Пенья, Мэгги Кью, Люси Хейл, Остин Стоуэлл, Портия Даблдэй, Джимми О. Ян, Райан Хансен, Майкл Рукер, Шарлотта МакКинни, Ким Коутс, Париса Фитц-Хенли, Майк Фогель







О фильме: Загадочный мистер Рорк воплощает в жизнь самые смелые и тайные мечты своих постояльцев на роскошном труднодоступном тропическом курорте. Но будут ли готовы гости разгадать тайну острова и спасти свои жизни, когда их фантазии обернутся кошмаром?



Страна: США

Студия: Columbia Pictures, Blumhouse Productions

Продолжительность: 01:49:24

Перевод: Дублированный | iTunes



Качество: BDRip 1080p

Видео: MPEG-4 AVC, 1920x804, 12.3 Mbit/s, 23.976 fps

Аудио #01: 48 kHz, AC3, 5.1, 384 Kbps | iTunes | RUS |

Аудио #02: 48 kHz, AC3, 5.1, 640 Kbps | Оригинал | ENG |

Субтитры: Русские (Forced, full), украинские (Full), английские







MIGeneral

Unique ID : 143847695510392731650548109005875881910 (0x6C380EF4B564119707839A94D034A7B6)

Complete name : E:Video111Fantasy.Island.2020.Unrated.BDRip.1080p.seleZen.mkv

Format : Matroska

Format version : Version 4

File size : 10.2 GiB

Duration : 1 h 49 min

Overall bit rate : 13.3 Mb/s

Movie name : Fantasy Island 2020 from селезень

Encoded date : UTC 2020-05-02 01:04:07

Writing application : mkvmerge v40.0.0 ('Old Town Road + Pony') 64-bit

Writing library : libebml v1.3.9 + libmatroska v1.5.2



Video

ID : 1

Format : AVC

Format/Info : Advanced Video Codec

Format profile : [email protected]

Format settings : CABAC / 4 Ref Frames

Format settings, CABAC : Yes

Format settings, Reference : 4 frames

Codec ID : V_MPEG4/ISO/AVC

Duration : 1 h 49 min

Bit rate : 12.3 Mb/s

Width : 1 920 pixels

Height : 804 pixels

Display aspect ratio : 2.40:1

Frame rate mode : Constant

Frame rate : 23.976 (24000/1001) FPS

Color space : YUV

Chroma subsampling : 4:2:0

Bit depth : 8 bits

Scan type : Progressive

Bits/(Pixel*Frame) : 0.332

Stream size : 9.39 GiB (92%)

Title : CHD

Writing library : x264 core 157 r2867+150 7e91e0e t_mod_Custom_2 [[email protected] X86_64]

Encoding settings : cabac=1 / ref=4 / deblock=1:-3:-3 / analyse=0x3:0x133 / me=umh / subme=11 / psy=1 / fade_compensate=0.00 / psy_rd=0.90:0.10 / mixed_ref=1 / me_range=64 / chroma_me=1 / trellis=2 / 8x8dct=1 / cqm=0 / deadzone=21,11 / fast_pskip=0 / chroma_qp_offset=-4 / threads=25 / lookahead_threads=4 / sliced_threads=0 / nr=0 / decimate=1 / interlaced=0 / bluray_compat=0 / constrained_intra=0 / fgo=0 / bframes=8 / b_pyramid=2 / b_adapt=2 / b_bias=0 / direct=3 / weightb=1 / open_gop=0 / weightp=2 / keyint=250 / keyint_min=23 / scenecut=40 / intra_refresh=0 / rc_lookahead=60 / rc=crf / mbtree=0 / crf=18.0000 / qcomp=0.70 / qpmin=0:0:0 / qpmax=69:69:69 / qpstep=4 / vbv_maxrate=35000 / vbv_bufsize=35000 / crf_max=0.0 / nal_hrd=none / filler=0 / ip_ratio=1.40 / pb_ratio=1.30 / aq=3:1.00 / aq-sensitivity=10.00 / aq-factor=1.00:1.00:1.00 / aq2=0 / aq3=0

Language : English

Default : Yes

Forced : No



Audio #1

ID : 2

Format : AC-3

Format/Info : Audio Coding 3

Commercial name : Dolby Digital

Codec ID : A_AC3

Duration : 1 h 49 min

Bit rate mode : Constant

Bit rate : 384 kb/s

Channel(s) : 6 channels

Channel layout : L R C LFE Ls Rs

Sampling rate : 48.0 kHz

Frame rate : 31.250 FPS (1536 SPF)

Compression mode : Lossy

Stream size : 300 MiB (3%)

Title : iTunes

Language : Russian

Service kind : Complete Main

Default : Yes

Forced : Yes



Audio #2

ID : 3

Format : AC-3

Format/Info : Audio Coding 3

Commercial name : Dolby Digital

Codec ID : A_AC3

Duration : 1 h 49 min

Bit rate mode : Constant

Bit rate : 640 kb/s

Channel(s) : 6 channels

Channel layout : L R C LFE Ls Rs

Sampling rate : 48.0 kHz

Frame rate : 31.250 FPS (1536 SPF)

Compression mode : Lossy

Stream size : 501 MiB (5%)

Title : Original

Language : English

Service kind : Complete Main

Default : No

Forced : No



Text #1

ID : 4

Format : UTF-8

Codec ID : S_TEXT/UTF8

Codec ID/Info : UTF-8 Plain Text

Duration : 1 h 46 min

Bit rate : 0 b/s

Count of elements : 3

Stream size : 129 Bytes (0%)

Title : Forced

Language : Russian

Default : Yes

Forced : Yes



Text #2

ID : 5

Format : UTF-8

Codec ID : S_TEXT/UTF8

Codec ID/Info : UTF-8 Plain Text

Duration : 1 h 48 min

Bit rate : 96 b/s

Count of elements : 1409

Stream size : 76.3 KiB (0%)

Title : Full

Language : Russian

Default : No

Forced : No



Text #3

ID : 6

Format : UTF-8

Codec ID : S_TEXT/UTF8

Codec ID/Info : UTF-8 Plain Text

Duration : 1 h 48 min

Bit rate : 88 b/s

Count of elements : 1407

Stream size : 70.5 KiB (0%)

Title : Full

Language : Ukrainian

Default : No

Forced : No



Text #4

ID : 7

Format : UTF-8

Codec ID : S_TEXT/UTF8

Codec ID/Info : UTF-8 Plain Text

Duration : 1 h 46 min

Bit rate : 61 b/s

Count of elements : 1581

Stream size : 48.1 KiB (0%)

Title : Full

Language : English

Default : No

Forced : No



Text #5

ID : 8

Format : UTF-8

Codec ID : S_TEXT/UTF8

Codec ID/Info : UTF-8 Plain Text

Duration : 1 h 48 min

Bit rate : 67 b/s

Count of elements : 1930

Stream size : 53.5 KiB (0%)

Title : SDH

Language : English

Default : No

Forced : No



Menu

00:00:00.000 : :Chapter 1

00:08:47.110 : :Chapter 2

00:13:44.824 : :Chapter 3

00:18:47.501 : :Chapter 4

00:25:42.332 : :Chapter 5

00:32:38.706 : :Chapter 6

00:39:34.956 : :Chapter 7

00:45:24.722 : :Chapter 8

00:51:02.142 : :Chapter 9

00:55:38.335 : :Chapter 10

01:01:34.148 : :Chapter 11

01:09:40.092 : :Chapter 12

01:15:21.558 : :Chapter 13

01:23:03.019 : :Chapter 14

01:29:11.638 : :Chapter 15

01:40:03.831 : :Chapter 16



Релиз от:



Discussion

Comments 0

Post Your Comment

Files in this torrent

FILENAMESIZE
Fantasy.Island.2020.Unrated.BDRip.1080p.seleZen.mkv10.2 GB

Alternative Torrents for 'Fantasy Island Unrated'.

TORRENT NAMEADDEDSIZESEEDSPEERSHEALTH
6/13/20204 GB00
6/13/202010.4 GB00
6/11/20201.5 GB00
6/10/2020750 MB00
6/9/20201.5 GB00
5/28/20202.2 GB00
5/12/20202.3 GB00
5/12/20202 GB00
5/12/20209.9 GB00
5/9/20201.7 GB00
5/6/20201.8 GB00
5/6/2020949 MB00
5/6/20201.3 GB00
5/6/20205.3 GB00
5/5/202016 GB00