Bad Boys For Life (2020) 1080p BluRay X264 Dual Audio [Hindi Org BD DD 5.1 - English DD 5.1] - ESUB ~ Ranvijay

Torrent Details

Bad Boys for Life (2020) 1080p BluRay x264 Dual Audio [Hindi Org BD DD 5.1 - English DD 5.1] - ESUB ~ Ranvijay
Bad Boys for Life (2020) 1080p BluRay x264 Dual Audio [Hindi Org BD DD 5.1 - English DD 5.1] - ESUB ~ Ranvijay

NAME
Bad Boys for Life (2020) 1080p BluRay x264 Dual Audio [Hindi Org BD DD 5.1 - English DD 5.1] - ESUB ~ Ranvijay.torrent
CATEGORY
Movies
INFOHASH
e46e36fff7da6af4fa49706a8694a99dbf7ecc86
SIZE
4.5 GB in 2 files
ADDED
Uploaded on 02-05-2020 by our crawler pet called "Spidey".
SWARM
0 seeders & 0 peers
RATING
No votes yet.

Please login to vote for this torrent.


Description

Bad Boys for Life (2020) 1080p BluRay x264 Dual Audio [Hindi Org BD DD5.1 - English DD5.1] - ESUB ~ Ranvijay - DUS-ICTV

Hindi Audio Source :- TTG

General
Format : Matroska
Format version : Version 4
File size : 4.51 GiB
Duration : 2 h 3 min
Overall bit rate : 5 210 kb/s
Movie name : Bad Boys for Life (2020) 1080p BluRay x264 Dual Audio [Hindi Org BD DD5.1 - English DD5.1] - ESUB ~ Ranvijay

Video
ID : 1
Format : AVC
Format/Info : Advanced Video Codec
Format profile : [email protected]
Format settings : CABAC / 5 Ref Frames
Format settings, CABAC : Yes
Format settings, Reference frames : 5 frames
Codec ID : V_MPEG4/ISO/AVC
Duration : 2 h 3 min
Bit rate : 4 500 kb/s
Width : 1 920 pixels
Height : 800 pixels
Display aspect ratio : 2.40:1
Frame rate mode : Constant
Frame rate : 23.976 (24000/1001) FPS
Color space : YUV
Chroma subsampling : 4:2:0
Bit depth : 8 bits
Scan type : Progressive
Bits/(Pixel*Frame) : 0.122
Stream size : 3.77 GiB (84%)
Title : ~Ranvijay~

Audio #1
ID : 2
Format : AC-3
Format/Info : Audio Coding 3
Commercial name : Dolby Digital
Codec ID : A_AC3
Duration : 2 h 3 min
Bit rate mode : Constant
Bit rate : 448 kb/s
Channel(s) : 6 channels
Channel layout : L R C LFE Ls Rs
Sampling rate : 48.0 kHz
Frame rate : 31.250 FPS (1536 SPF)
Compression mode : Lossy
Stream size : 397 MiB (9%)
Title : ~Ranvijay~
Language : Hindi
Service kind : Complete Main
Default : Yes
Forced : Yes

Audio #2
ID : 3
Format : AC-3
Format/Info : Audio Coding 3
Commercial name : Dolby Digital
Codec ID : A_AC3
Duration : 2 h 3 min
Bit rate mode : Constant
Bit rate : 384 kb/s
Channel(s) : 6 channels
Channel layout : L R C LFE Ls Rs
Sampling rate : 48.0 kHz
Frame rate : 31.250 FPS (1536 SPF)
Compression mode : Lossy
Stream size : 341 MiB (7%)
Title : ~Ranvijay~
Language : English
Service kind : Complete Main
Default : No
Forced : No

Text
ID : 4
Format : PGS
Muxing mode : zlib
Codec ID : S_HDMV/PGS
Codec ID/Info : Picture based subtitle format used on BDs/HD-DVDs
Duration : 1 h 57 min
Bit rate : 44.3 kb/s
Count of elements : 3753
Stream size : 37.3 MiB (1%)
Title : ~Ranvijay~
Language : English
Default : Yes
Forced : Yes

Menu
00:00:00.000 : en:Chapter 01
00:07:33.201 : en:Chapter 02
00:14:56.644 : en:Chapter 03
00:23:43.255 : en:Chapter 04
00:31:05.613 : en:Chapter 05
00:38:43.070 : en:Chapter 06
00:45:26.347 : en:Chapter 07
00:53:27.329 : en:Chapter 08
01:00:22.034 : en:Chapter 09
01:07:29.253 : en:Chapter 10
01:12:55.162 : en:Chapter 11
01:22:12.344 : en:Chapter 12
01:29:49.091 : en:Chapter 13
01:36:47.801 : en:Chapter 14
01:42:08.579 : en:Chapter 15
01:53:55.912 : en:Chapter 16







Discussion

Comments 0

Post Your Comment

Files in this torrent

FILENAMESIZE
Bad Boys for Life (2020) 1080p BluRay x264 Dual Audio [Hindi Org BD DD5.1 - English DD5.1] - ESUB ~ Ranvijay.mkv4.5 GB
Sample - Bad Boys for Life (2020) 1080p BluRay x264 Dual Audio [Hindi Org BD DD5.1 - English DD5.1] - ESUB ~ Ranvijay.mkv27.3 MB

Alternative Torrents for 'Bad Boys for Life BluRay Dual Audio Hindi Org BD DD English DD . ESUB Ranvijay'.

There are no alternative torrents found.