Bad Boys For Life 2020 BluRay 1080p Hindi English BD 5 1 X264 ESubs - MkvCinemas [Telly]

Torrent Details

Bad Boys for Life 2020 BluRay 1080p Hindi English BD 5 1 x264 ESubs - mkvCinemas [Telly]
Bad Boys for Life 2020 BluRay 1080p Hindi English BD 5 1 x264 ESubs - mkvCinemas [Telly]

NAME
Bad Boys for Life 2020 BluRay 1080p Hindi English BD 5 1 x264 ESubs - mkvCinemas [Telly].torrent
CATEGORY
Movies
INFOHASH
bbb37b3ceb1d8d7cd569a80f740a8b7b374ead85
SIZE
3.8 GB in 1 file
ADDED
Uploaded on 02-05-2020 by our crawler pet called "Spidey".
SWARM
0 seeders & 0 peers
RATING
No votes yet.

Please login to vote for this torrent.


Description

कोरोना से बचाव:

घर पर फिल्में देखें। घर में रहें, सुरक्षित रहें। सरकार द्वारा दिए गए सभी दिशानिर्देशों और सावधानियों का जरूर पालन करें।



Fight Corona:

Watch movies at home. Stay Home, Stay Safe. Must Follow All the guidelines and precautions advised by the Government.















********************************



Bad Boys for Life 2020 BluRay 1080p Hindi English BD 5.1 x264 ESubs - mkvCinemas [Telly]



********************************



Mediainfo:-

Format                      : Matroska

Format version              : Version 2

File size                   : 3.82 GiB

Duration                    : 2h 3mn

Overall bit rate mode       : Variable

Overall bit rate            : 4 416 Kbps





Video

ID                          : 1

Format                      : AVC

Format/Info                 : Advanced Video Codec

Format profile              : [email protected]

Format settings, CABAC      : Yes

Format settings, ReFrames   : 4 frames

Muxing mode                 : Header stripping

Codec ID                    : V_MPEG4/ISO/AVC

Duration                    : 2h 3mn

Bit rate mode               : Variable

Bit rate                    : 3 500 Kbps

Maximum bit rate            : 62.5 Mbps

Width                       : 1 920 pixels

Height                      : 800 pixels

Display aspect ratio        : 2.40:1

Frame rate mode             : Constant

Frame rate                  : 23.976 fps

Color space                 : YUV





Audio #1

ID                          : 2

Format                      : AC-3

Format/Info                 : Audio Coding 3

Mode extension              : CM (complete main)

Format settings, Endianness : Big

Muxing mode                 : Header stripping

Codec ID                    : A_AC3

Duration                    : 2h 3mn

Bit rate mode               : Constant

Bit rate                    : 448 Kbps

Channel(s)                  : 6 channels

Channel positions           : Front: L C R, Side: L R, LFE

Sampling rate               : 48.0 KHz

Bit depth                   : 16 bits

Compression mode            : Lossy

Stream size                 : 397 MiB (10%)

Title                       : mkvCinemas

Language                    : Hindi

Default                     : Yes

Forced                      : No



Audio #2

ID                          : 3

Format                      : AC-3

Format/Info                 : Audio Coding 3

Mode extension              : CM (complete main)

Format settings, Endianness : Big

Muxing mode                 : Header stripping

Codec ID                    : A_AC3

Duration                    : 2h 3mn

Bit rate mode               : Constant

Bit rate                    : 448 Kbps

Channel(s)                  : 6 channels

Channel positions           : Front: L C R, Side: L R, LFE

Sampling rate               : 48.0 KHz

Bit depth                   : 16 bits

Compression mode            : Lossy

Stream size                 : 397 MiB (10%)

Title                       : mkvCinemas

Language                    : English

Default                     : No

Forced                      : No



Text #1

ID                          : 4

Format                      : PGS

Muxing mode                 : zlib

Codec ID                    : S_HDMV/PGS

Codec ID/Info               : The same subtitle format used on BDs/HD-DVDs

Title                       : English-PGS-SDH

Language                    : English

Default                     : Yes

Forced                      : No



Text #2

ID                          : 5

Format                      : UTF-8

Codec ID                    : S_TEXT/UTF8

Codec ID/Info               : UTF-8 Plain Text

Title                       : English-FORCED-SRT

Language                    : English

Default                     : No

Forced                      : Yes



Text #3

ID                          : 6

Format                      : UTF-8

Codec ID                    : S_TEXT/UTF8

Codec ID/Info               : UTF-8 Plain Text

Title                       : English-SRT

Language                    : English

Default                     : No

Forced                      : No



Text #4

ID                          : 7

Format                      : UTF-8

Codec ID                    : S_TEXT/UTF8

Codec ID/Info               : UTF-8 Plain Text

Title                       : English-SRT-SDH

Language                    : English

Default                     : No

Forced                      : No



Menu

00:00:00.000                : en:Chapter 01

00:07:33.202                : en:Chapter 02

00:14:56.645                : en:Chapter 03

00:23:43.253                : en:Chapter 04

00:31:05.612                : en:Chapter 05

00:38:43.068                : en:Chapter 06

00:45:26.346                : en:Chapter 07

00:53:27.325                : en:Chapter 08

01:00:22.031                : en:Chapter 09

01:07:29.249                : en:Chapter 10

01:12:55.157                : en:Chapter 11

01:22:12.339                : en:Chapter 12

01:29:49.086                : en:Chapter 13

01:36:47.796                : en:Chapter 14

01:42:08.574                : en:Chapter 15

01:53:55.905                : en:Chapter 16

01:58:00.691                : en:Chapter 17









********************************



We don't add Watermark or Audio Tags.

Wherever you Share our Stuffs, Give Proper Credit to "mkvCinemas @Team Telly"

We Keep All Torrents. In case of re-seed, please pm.



********************************















********************************







********************************

Discussion

Comments 0

Post Your Comment

Files in this torrent

FILENAMESIZE
Bad Boys for Life 2020 BluRay 1080p Hindi English BD 5.1 x264 ESubs - mkvCinemas [Telly].mkv3.8 GB

Alternative Torrents for 'Bad Boys for Life BluRay Hindi English BD ESubs mkvCinemas Telly'.

TORRENT NAMEADDEDSIZESEEDSPEERSHEALTH
5/2/20203.8 GB00