Birds Of Prey And The Fantabulous Emancipation Of One Harley Quinn 2020 D MVO BDRip 1080p SeleZen

Torrent Details

Birds of Prey and the Fantabulous Emancipation of One Harley Quinn 2020 D MVO BDRip 1080p<span style=color:#fc9c6d> seleZen</span>
Birds of Prey and the Fantabulous Emancipation of One Harley Quinn 2020 D MVO BDRip 1080p<span style=color:#fc9c6d> seleZen</span>

NAME
Birds of Prey and the Fantabulous Emancipation of One Harley Quinn 2020 D MVO BDRip 1080p seleZen.torrent
CATEGORY
Movies
INFOHASH
b7e82eeee902420c89b0e9257b392a3dbb93cc4c
SIZE
10.7 GB in 1 file
ADDED
Uploaded on 02-05-2020 by our crawler pet called "Spidey".
SWARM
0 seeders & 0 peers
RATING
No votes yet.

Please login to vote for this torrent.


Description

Информация о фильме

Название: Хищные птицы: Потрясающая история Харли Квинн

Оригинальное название: Birds of Prey: And the Fantabulous Emancipation of One Harley Quinn

Год выхода: 2020

Жанр: Боевик, криминал, комедия

Режиссер: Кэти Янь

В ролях: Марго Робби, Джерни Смоллетт, Мэри Элизабет Уинстэд, Рози Перес, Элла Джей Баско, Юэн Макгрегор, Крис Мессина, Бояна Новакович, Али Вонг, Дэвид Ури







О фильме: Харли Квинн рассталась с Джокером и через некоторое время сообщила об этом всему Готэму, взорвав тот самый химзавод. Девушка больше не тоскует по несостоявшимся отношениям — ей некогда, так как она также потеряла неприкосновенность, и теперь за ней охотятся разной степени криминализованности граждане, которым она когда-либо наносила вред. А в это время ставший крёстным отцом Готема Роман Сайонис очень жаждет вернуть пропавший бриллиант, который стащила у его подручного малолетняя карманница.



Страна: США

Студия: Clubhouse Pictures (II), DC Entertainment, Kroll & Co. Entertainment

Продолжительность: 01:48:54

Перевод(ы):

#1: Дублированный | iTunes

#2: Профессиональный многоголосый | HDRezka Studio



Качество: BDRip 1080p

Видео: MPEG-4 AVC, 1920x804, 12.4 Mbit/s, 23.976 fps

Аудио #01: 48 kHz, AC3, 5.1, 384 Kbps | iTunes | RUS |

Аудио #02: 48 kHz, AC3, 5.1, 448 Kbps | HDRezka Studio | RUS |

Аудио #03: 48 kHz, AC3, 2.0, 192 Kbps | iTunes | UKR |

Аудио #04: 48 kHz, AC3, 5.1, 640 Kbps | Оригинал | ENG |

Субтитры: Русские (Forced, Full), украинские (Forced), английские







MIGeneral

Unique ID : 268217889966720724824602588297126294102 (0xC9C8E2F79C209FF58F8B7D93FA653256)

Complete name : E:Video1111Birds.of.Prey.and.the.Fantabulous.Emancipation.of.One.Harley.Quinn.2020.D.MVO.BDRip.1080p.seleZen.mkv

Format : Matroska

Format version : Version 4

File size : 10.7 GiB

Duration : 1 h 48 min

Overall bit rate : 14.0 Mb/s

Movie name : Birds of Prey And the Fantabulous Emancipation of One Harley Quinn 2020 from селезень

Encoded date : UTC 2020-05-02 14:27:21

Writing application : mkvmerge v40.0.0 ('Old Town Road + Pony') 64-bit

Writing library : libebml v1.3.9 + libmatroska v1.5.2



Video

ID : 1

Format : AVC

Format/Info : Advanced Video Codec

Format profile : [email protected]

Format settings : CABAC / 4 Ref Frames

Format settings, CABAC : Yes

Format settings, Reference : 4 frames

Codec ID : V_MPEG4/ISO/AVC

Duration : 1 h 48 min

Bit rate : 12.4 Mb/s

Width : 1 920 pixels

Height : 804 pixels

Display aspect ratio : 2.40:1

Frame rate mode : Constant

Frame rate : 23.976 (24000/1001) FPS

Color space : YUV

Chroma subsampling : 4:2:0

Bit depth : 8 bits

Scan type : Progressive

Bits/(Pixel*Frame) : 0.334

Stream size : 9.40 GiB (88%)

Title : CHD

Writing library : x264 core 157 r2867+150 7e91e0e t_mod_Custom_2 [[email protected] X86_64]

Encoding settings : cabac=1 / ref=4 / deblock=1:-3:-3 / analyse=0x3:0x133 / me=umh / subme=11 / psy=1 / fade_compensate=0.00 / psy_rd=0.90:0.10 / mixed_ref=1 / me_range=64 / chroma_me=1 / trellis=2 / 8x8dct=1 / cqm=0 / deadzone=21,11 / fast_pskip=0 / chroma_qp_offset=-4 / threads=25 / lookahead_threads=4 / sliced_threads=0 / nr=0 / decimate=1 / interlaced=0 / bluray_compat=0 / constrained_intra=0 / fgo=0 / bframes=8 / b_pyramid=2 / b_adapt=2 / b_bias=0 / direct=3 / weightb=1 / open_gop=0 / weightp=2 / keyint=250 / keyint_min=23 / scenecut=40 / intra_refresh=0 / rc_lookahead=60 / rc=crf / mbtree=0 / crf=17.0000 / qcomp=0.70 / qpmin=0:0:0 / qpmax=69:69:69 / qpstep=4 / vbv_maxrate=35000 / vbv_bufsize=35000 / crf_max=0.0 / nal_hrd=none / filler=0 / ip_ratio=1.40 / pb_ratio=1.30 / aq=3:1.00 / aq-sensitivity=10.00 / aq-factor=1.00:1.00:1.00 / aq2=0 / aq3=0

Language : English

Default : Yes

Forced : No



Audio #1

ID : 2

Format : AC-3

Format/Info : Audio Coding 3

Commercial name : Dolby Digital

Codec ID : A_AC3

Duration : 1 h 48 min

Bit rate mode : Constant

Bit rate : 384 kb/s

Channel(s) : 6 channels

Channel layout : L R C LFE Ls Rs

Sampling rate : 48.0 kHz

Frame rate : 31.250 FPS (1536 SPF)

Compression mode : Lossy

Stream size : 299 MiB (3%)

Title : iTunes

Language : Russian

Service kind : Complete Main

Default : Yes

Forced : Yes



Audio #2

ID : 3

Format : AC-3

Format/Info : Audio Coding 3

Commercial name : Dolby Digital

Codec ID : A_AC3

Duration : 1 h 48 min

Bit rate mode : Constant

Bit rate : 448 kb/s

Channel(s) : 6 channels

Channel layout : L R C LFE Ls Rs

Sampling rate : 48.0 kHz

Frame rate : 31.250 FPS (1536 SPF)

Compression mode : Lossy

Stream size : 349 MiB (3%)

Title : HDRezka Studio

Language : Russian

Service kind : Complete Main

Default : No

Forced : No



Audio #3

ID : 4

Format : AC-3

Format/Info : Audio Coding 3

Commercial name : Dolby Digital

Codec ID : A_AC3

Duration : 1 h 48 min

Bit rate mode : Constant

Bit rate : 192 kb/s

Channel(s) : 2 channels

Channel layout : L R

Sampling rate : 48.0 kHz

Frame rate : 31.250 FPS (1536 SPF)

Compression mode : Lossy

Stream size : 150 MiB (1%)

Title : iTunes

Language : Ukrainian

Service kind : Complete Main

Default : No

Forced : No



Audio #4

ID : 5

Format : AC-3

Format/Info : Audio Coding 3

Commercial name : Dolby Digital

Codec ID : A_AC3

Duration : 1 h 48 min

Bit rate mode : Constant

Bit rate : 640 kb/s

Channel(s) : 6 channels

Channel layout : L R C LFE Ls Rs

Sampling rate : 48.0 kHz

Frame rate : 31.250 FPS (1536 SPF)

Compression mode : Lossy

Stream size : 499 MiB (5%)

Title : Original

Language : English

Service kind : Complete Main

Default : No

Forced : No



Text #1

ID : 6

Format : UTF-8

Codec ID : S_TEXT/UTF8

Codec ID/Info : UTF-8 Plain Text

Duration : 1 h 41 min

Bit rate : 3 b/s

Count of elements : 53

Stream size : 2.42 KiB (0%)

Title : Forced

Language : Russian

Default : Yes

Forced : Yes



Text #2

ID : 7

Format : UTF-8

Codec ID : S_TEXT/UTF8

Codec ID/Info : UTF-8 Plain Text

Duration : 1 h 48 min

Bit rate : 91 b/s

Count of elements : 1335

Stream size : 72.8 KiB (0%)

Title : Full

Language : Russian

Default : No

Forced : No



Text #3

ID : 8

Format : UTF-8

Codec ID : S_TEXT/UTF8

Codec ID/Info : UTF-8 Plain Text

Duration : 1 h 47 min

Bit rate : 3 b/s

Count of elements : 55

Stream size : 2.72 KiB (0%)

Title : Forced

Language : Ukrainian

Default : No

Forced : No



Text #4

ID : 9

Format : UTF-8

Codec ID : S_TEXT/UTF8

Codec ID/Info : UTF-8 Plain Text

Duration : 1 h 48 min

Bit rate : 53 b/s

Count of elements : 1586

Stream size : 42.5 KiB (0%)

Title : Full

Language : English

Default : No

Forced : No



Text #5

ID : 10

Format : UTF-8

Codec ID : S_TEXT/UTF8

Codec ID/Info : UTF-8 Plain Text

Duration : 1 h 48 min

Bit rate : 75 b/s

Count of elements : 2100

Stream size : 59.8 KiB (0%)

Title : SDH

Language : English

Default : No

Forced : No



Menu

00:00:00.000 : en:Chapter 01

00:08:08.446 : en:Chapter 02

00:17:53.739 : en:Chapter 03

00:27:11.839 : en:Chapter 04

00:35:40.805 : en:Chapter 05

00:44:48.352 : en:Chapter 06

00:53:43.387 : en:Chapter 07

01:01:15.547 : en:Chapter 08

01:10:55.960 : en:Chapter 09

01:19:06.492 : en:Chapter 10

01:24:28.146 : en:Chapter 11

01:34:27.996 : en:Chapter 12

01:41:26.998 : en:Chapter 13



Релиз от:



Discussion

Comments 0

Post Your Comment

Files in this torrent

FILENAMESIZE
Birds.of.Prey.and.the.Fantabulous.Emancipation.of.One.Harley.Quinn.2020.D.MVO.BDRip.1080p.seleZen.mkv10.7 GB

Alternative Torrents for 'Birds of Prey and Fantabulous Emancipation of One Harley Quinn MVO'.

TORRENT NAMEADDEDSIZESEEDSPEERSHEALTH
5/7/202010.7 GB00
5/7/202010.7 GB00
5/6/202053 GB00
5/6/202045.9 GB00
5/4/202049.7 GB00
5/2/202020 GB00
5/2/202010.7 GB00