Extraction (2020) 2160p HDR 5 1 X265 10bit Phun Psyz

Torrent Details


Extraction (2020) 2160p HDR 5 1 x265 10bit Phun Psyz

NAME
Extraction (2020) 2160p HDR 5 1 x265 10bit Phun Psyz.torrent
CATEGORY
Movies
INFOHASH
ce532ff1c7a529bd79dcb806174a3ab5ca77685d
SIZE
3.2 GB in 1 file
ADDED
Uploaded on 02-05-2020 by our crawler pet called "Spidey".
SWARM
0 seeders & 0 peers
RATING
No votes yet.

Please login to vote for this torrent.


Description

www.imdb.com/title/tt8936646



Tyler Rake, a fearless black market mercenary, embarks on the most deadly extraction of his career when he's enlisted to rescue the kidnapped son of an imprisoned international crime lord.



Source: AJP69 (NF)







Format                      : Matroska

Format version              : Version 4

File size                   : 3.20 GiB

Duration                    : 1 h 57 min

Overall bit rate            : 3 906 kb/s

Writing application         : HandBrake 1.2.0 2018121700

Writing library             : Lavf58.20.100



Video

ID                          : 1

Format                      : HEVC

Format/Info                 : High Efficiency Video Coding

Format profile              : Main [email protected]@High

Codec ID                    : V_MPEGH/ISO/HEVC

Duration                    : 1 h 56 min

Bit rate                    : 3 508 kb/s

Width                       : 3 840 pixels

Height                      : 1 604 pixels

Display aspect ratio        : 2.40:1

Frame rate mode             : Constant

Frame rate                  : 24.000 FPS

Color space                 : YUV

Chroma subsampling          : 4:2:0

Bit depth                   : 10 bits

Bits/(Pixel*Frame)          : 0.024

Stream size                 : 2.84 GiB (89%)

Writing library             : x265 2.9:[Windows][GCC 7.1.0][64 bit] 10bit

Color range                 : Limited

Color primaries             : BT.2020

Transfer characteristics    : PQ

Matrix coefficients         : BT.2020 non-constant



Audio

ID                          : 2

Format                      : AC-3

Format/Info                 : Audio Coding 3

Commercial name             : Dolby Digital

Codec ID                    : A_AC3

Duration                    : 1 h 57 min

Bit rate mode               : Constant

Bit rate                    : 320 kb/s

Channel(s)                  : 6 channels

Channel layout              : L R C LFE Ls Rs

Sampling rate               : 48.0 kHz

Frame rate                  : 31.250 FPS (1536 SPF)

Bit depth                   : 16 bits

Compression mode            : Lossy

Delay relative to video     : -5 ms

Stream size                 : 269 MiB (8%)

Title                       : Surround

Language                    : English



Text

Language                    : English

Language                    : English

Language                    : English

Language                    : Arabic

Language                    : Danish

Language                    : German

Language                    : Greek

Language                    : Spanish

Language                    : Spanish

Language                    : Finnish

Language                    : French

Language                    : Hungarian

Language                    : Italian

Language                    : Japanese

Language                    : Korean

Language                    : Norwegian Bokmal

Language                    : Dutch

Language                    : Polish

Language                    : Portuguese

Language                    : Portuguese

Language                    : Romanian

Language                    : Russian

Language                    : Swedish

Language                    : Thai

Language                    : Turkish

Language                    : Vietnamese

Language                    : Chinese

Language                    : Chinese

Default                     : No

Forced                      : No

Discussion

Comments 0

Post Your Comment

Files in this torrent

FILENAMESIZE
Extraction (2020) 2160p HDR 5.1 x265 10bit Phun Psyz.mkv3.2 GB

Alternative Torrents for 'Extraction HDR bit Phun Psyz'.

TORRENT NAMEADDEDSIZESEEDSPEERSHEALTH
6/22/20202 GB38123
6/16/20201.5 GB2215
6/19/20201.9 GB19710
6/25/20201.9 GB1884
6/17/20205 GB13813
6/16/202011.4 GB12213
6/28/20203.4 GB9326
6/28/20206.6 GB83106
6/22/20203.2 GB668
6/18/20209.6 GB4729
6/25/202025.2 GB4626
6/27/20201.3 GB425
6/25/202025.5 GB4126
6/26/20201.1 GB382
6/17/20201.8 GB3824