Mrs Serial Killer 2020 X264 720p Esub Netflix Dual Audio Hindi Telugu Tamil GOPI SAHI

Torrent Details


Mrs Serial Killer 2020 x264 720p Esub Netflix Dual Audio Hindi Telugu Tamil GOPI SAHI

NAME
Mrs Serial Killer 2020 x264 720p Esub Netflix Dual Audio Hindi Telugu Tamil GOPI SAHI.torrent
CATEGORY
Movies
INFOHASH
3522aff09fcdfe2a856df342647a091239ccedd9
SIZE
912 MB in 1 file
ADDED
Uploaded on 02-05-2020 by our crawler pet called "Spidey".
SWARM
0 seeders & 0 peers
RATING
No votes yet.

Please login to vote for this torrent.


Description

https://www.gopisahi.in/




General
Unique ID : 264507101013207909413475833883403921939 (0xC6FE36F2485AE2BA1A1AB1C819D6AA13)
Complete name : /home2/gopisahi/storage/downloads/rtorrent/Mrs.Serial Killer 2020 x264 720p Esub Netflix Dual Audio Hindi Telugu Tamil GOPI SAHI.mkv
Format : Matroska
Format version : Version 4 / Version 2
File size : 912 MiB
Duration : 1 h 46 min
Overall bit rate : 1 192 kb/s
Movie name : Mrs.Serial Killer 2020 GOPI SAHI
Encoded date : UTC 2020-05-02 12:50:23
Writing application : mkvmerge v36.0.0 ('Is That Jazz?') 64-bit
Writing library : libebml v1.3.9 + libmatroska v1.5.2

Video
ID : 1
Format : AVC
Format/Info : Advanced Video Codec
Format profile : [email protected]
Format settings : CABAC / 5 Ref Frames
Format settings, CABAC : Yes
Format settings, ReFrames : 5 frames
Codec ID : V_MPEG4/ISO/AVC
Duration : 1 h 46 min
Bit rate : 899 kb/s
Width : 1 280 pixels
Height : 640 pixels
Display aspect ratio : 2.000
Frame rate mode : Constant
Frame rate : 24.000 FPS
Color space : YUV
Chroma subsampling : 4:2:0
Bit depth : 8 bits
Scan type : Progressive
Bits/(Pixel*Frame) : 0.046
Stream size : 687 MiB (75%)
Title : GOPI SAHI
Writing library : x264 core 148
Encoding settings : cabac=1 / ref=5 / deblock=1:0:0 / analyse=0x3:0x133 / me=umh / subme=10 / psy=1 / psy_rd=1.00:0.00 / mixed_ref=1 / me_range=24 / chroma_me=1 / trellis=2 / 8x8dct=1 / cqm=0 / deadzone=21,11 / fast_pskip=1 / chroma_qp_offset=-2 / threads=12 / lookahead_threads=1 / sliced_threads=0 / nr=0 / decimate=1 / interlaced=0 / bluray_compat=0 / constrained_intra=0 / bframes=5 / b_pyramid=2 / b_adapt=2 / b_bias=0 / direct=3 / weightb=1 / open_gop=0 / weightp=2 / keyint=240 / keyint_min=24 / scenecut=40 / intra_refresh=0 / rc_lookahead=60 / rc=2pass / mbtree=1 / bitrate=899 / ratetol=1.0 / qcomp=0.60 / qpmin=0 / qpmax=69 / qpstep=4 / cplxblur=20.0 / qblur=0.5 / vbv_maxrate=62500 / vbv_bufsize=78125 / nal_hrd=none / filler=0 / ip_ratio=1.40 / aq=1:1.00
Language : Hindi
Default : Yes
Forced : No
Color range : Limited
Color primaries : BT.709
Transfer characteristics : BT.709
Matrix coefficients : BT.709

Audio #1
ID : 2
Format : AAC
Format/Info : Advanced Audio Codec
Format profile : LC
Codec ID : A_AAC-2
Duration : 1 h 46 min
Bit rate : 96.0 kb/s
Channel(s) : 2 channels
Channel positions : Front: L R
Sampling rate : 48.0 kHz
Frame rate : 46.875 FPS (1024 SPF)
Compression mode : Lossy
Delay relative to video : -21 ms
Stream size : 73.8 MiB (8%)
Title : GOPI SAHI
Language : Hindi
Default : Yes
Forced : No

Audio #2
ID : 3
Format : AAC
Format/Info : Advanced Audio Codec
Format profile : LC
Codec ID : A_AAC-2
Duration : 1 h 46 min
Bit rate : 96.0 kb/s
Channel(s) : 2 channels
Channel positions : Front: L R
Sampling rate : 48.0 kHz
Frame rate : 46.875 FPS (1024 SPF)
Compression mode : Lossy
Delay relative to video : -21 ms
Stream size : 73.8 MiB (8%)
Title : GOPI SAHI
Language : Tamil
Default : No
Forced : No

Audio #3
ID : 4
Format : AAC
Format/Info : Advanced Audio Codec
Format profile : LC
Codec ID : A_AAC-2
Duration : 1 h 46 min
Bit rate : 96.0 kb/s
Channel(s) : 2 channels
Channel positions : Front: L R
Sampling rate : 48.0 kHz
Frame rate : 46.875 FPS (1024 SPF)
Compression mode : Lossy
Delay relative to video : -21 ms
Stream size : 73.8 MiB (8%)
Title : GOPI SAHI
Language : Telugu
Default : No
Forced : No

Text #1
ID : 5
Format : UTF-8
Codec ID : S_TEXT/UTF8
Codec ID/Info : UTF-8 Plain Text
Duration : 1 h 41 min
Bit rate : 42 b/s
Count of elements : 1123
Stream size : 31.6 KiB (0%)
Title : GOPI SAHI
Language : English
Default : Yes
Forced : No

Text #2
ID : 6
Format : UTF-8
Codec ID : S_TEXT/UTF8
Codec ID/Info : UTF-8 Plain Text
Duration : 1 h 46 min
Bit rate : 146 b/s
Count of elements : 1430
Stream size : 114 KiB (0%)
Title : GOPI SAHI
Language : Hindi
Default : No
Forced : No


Discussion

Comments 0

Post Your Comment

Files in this torrent

FILENAMESIZE
Mrs.Serial Killer 2020 x264 720p Esub Netflix Dual Audio Hindi Telugu Tamil GOPI SAHI.mkv911.9 MB

Alternative Torrents for 'Mrs Serial Killer Esub Netflix Dual Audio Hindi Telugu Tamil GOPI SAHI'.

TORRENT NAMEADDEDSIZESEEDSPEERSHEALTH
5/2/2020912 MB00