Bad Boys For Life 2020 X264 720p Esub BluRay Dual Audio English Hindi Telugu Tamil GOPI SAHI

Torrent Details


Bad Boys for Life 2020 x264 720p Esub BluRay Dual Audio English Hindi Telugu Tamil GOPI SAHI

NAME
Bad Boys for Life 2020 x264 720p Esub BluRay Dual Audio English Hindi Telugu Tamil GOPI SAHI.torrent
CATEGORY
Movies
INFOHASH
a02c0554435c0611f2c97e7bfa0b00cf41500b37
SIZE
1.1 GB in 1 file
ADDED
Uploaded on 02-05-2020 by our crawler pet called "Spidey".
SWARM
0 seeders & 0 peers
RATING
No votes yet.

Please login to vote for this torrent.


Description

https://www.gopisahi.in/


Bad Boys for Life 2020 x264 720p Esub BluRay Dual Audio English Hindi Telugu Tamil GOPI SAHI

Format : Matroska
Format version : Version 4 / Version 2
File size : 1.12 GiB
Duration : 2 h 3 min
Overall bit rate : 1 288 kb/s
Movie name : Bad Boys for Life 2020 GOPI SAHI

Video
ID : 1
Format : AVC
Format/Info : Advanced Video Codec
Format profile : [email protected]
Format settings : CABAC / 5 Ref Frames
Format settings, CABAC : Yes
Format settings, ReFrames : 5 frames
Codec ID : V_MPEG4/ISO/AVC
Duration : 2 h 3 min
Bit rate : 899 kb/s
Width : 1 280 pixels
Height : 534 pixels
Display aspect ratio : 2.40:1
Frame rate mode : Constant
Frame rate : 23.976 (24000/1001) FPS
Color space : YUV
Chroma subsampling : 4:2:0
Bit depth : 8 bits
Scan type : Progressive
Bits/(Pixel*Frame) : 0.055
Stream size : 797 MiB (70%)
Title : GOPI SAHI
Writing library : x264 core 148

Audio #1
ID : 2
Format : AAC
Format/Info : Advanced Audio Codec
Format profile : LC
Codec ID : A_AAC-2
Duration : 2 h 3 min
Bit rate : 96.0 kb/s
Channel(s) : 2 channels
Channel positions : Front: L R
Sampling rate : 48.0 kHz
Frame rate : 46.875 FPS (1024 SPF)
Compression mode : Lossy
Delay relative to video : -21 ms
Stream size : 85.5 MiB (7%)
Title : GOPI SAHI
Language : Hindi
Default : Yes
Forced : No

Audio #2
ID : 3
Format : AAC
Format/Info : Advanced Audio Codec
Format profile : LC
Codec ID : A_AAC-2
Duration : 2 h 3 min
Bit rate : 96.0 kb/s
Channel(s) : 2 channels
Channel positions : Front: L R
Sampling rate : 48.0 kHz
Frame rate : 46.875 FPS (1024 SPF)
Compression mode : Lossy
Delay relative to video : -21 ms
Stream size : 85.5 MiB (7%)
Title : GOPI SAHI
Language : English
Default : No
Forced : No

Audio #3
ID : 4
Format : AAC
Format/Info : Advanced Audio Codec
Format profile : LC
Codec ID : A_AAC-2
Duration : 2 h 3 min
Bit rate : 96.0 kb/s
Channel(s) : 2 channels
Channel positions : Front: L R
Sampling rate : 48.0 kHz
Frame rate : 46.875 FPS (1024 SPF)
Compression mode : Lossy
Delay relative to video : -21 ms
Stream size : 85.5 MiB (7%)
Title : GOPI SAHI
Language : Tamil
Default : No
Forced : No

Audio #4
ID : 5
Format : AAC
Format/Info : Advanced Audio Codec
Format profile : LC
Codec ID : A_AAC-2
Duration : 2 h 3 min
Bit rate : 96.0 kb/s
Channel(s) : 2 channels
Channel positions : Front: L R
Sampling rate : 48.0 kHz
Frame rate : 46.875 FPS (1024 SPF)
Compression mode : Lossy
Delay relative to video : -21 ms
Stream size : 85.5 MiB (7%)
Title : GOPI SAHI
Language : Telugu
Default : No
Forced : No

Text
ID : 6
Format : UTF-8
Codec ID : S_TEXT/UTF8
Codec ID/Info : UTF-8 Plain Text
Duration : 2 h 1 min
Bit rate : 73 b/s
Count of elements : 2284
Stream size : 65.3 KiB (0%)
Title : GOPI SAHI
Language : English
Default : No
Forced : No

Menu
00:00:00.000 : :Chapter 1
00:07:32.953 : :Chapter 2
00:14:56.813 : :Chapter 3
00:23:43.422 : :Chapter 4
00:31:05.781 : :Chapter 5
00:38:43.238 : :Chapter 6
00:45:26.474 : :Chapter 7
00:53:27.496 : :Chapter 8
01:00:22.202 : :Chapter 9
01:07:29.420 : :Chapter 10
01:12:55.329 : :Chapter 11
01:22:11.718 : :Chapter 12
01:29:49.259 : :Chapter 13
01:36:47.927 : :Chapter 14
01:42:08.664 : :Chapter 15
01:53:55.370 : :Chapter 16

Discussion

Comments 0

Post Your Comment

Files in this torrent

FILENAMESIZE
Bad Boys for Life 2020 x264 720p Esub BluRay Dual Audio English Hindi Telugu Tamil GOPI SAHI.mkv1.1 GB

Alternative Torrents for 'Bad Boys for Life Esub BluRay Dual Audio English Hindi Telugu Tamil GOPI SAHI'.

TORRENT NAMEADDEDSIZESEEDSPEERSHEALTH
5/2/20201.1 GB00