Birds Of Prey And The Fantabulous Emancipation Of One Harley Quinn 2020 D BDRip 720p SeleZen

Torrent Details

Birds of Prey and the Fantabulous Emancipation of One Harley Quinn 2020 D BDRip 720p<span style=color:#fc9c6d> seleZen</span>
Birds of Prey and the Fantabulous Emancipation of One Harley Quinn 2020 D BDRip 720p<span style=color:#fc9c6d> seleZen</span>

NAME
Birds of Prey and the Fantabulous Emancipation of One Harley Quinn 2020 D BDRip 720p seleZen.torrent
CATEGORY
Movies
INFOHASH
32001de8c02bd749b1be75cf0076e8c20c96717e
SIZE
4.3 GB in 1 file
ADDED
Uploaded on 03-05-2020 by our crawler pet called "Spidey".
SWARM
0 seeders & 0 peers
RATING
No votes yet.

Please login to vote for this torrent.


Description

Информация о фильме

Название: Хищные птицы: Потрясающая история Харли Квинн

Оригинальное название: Birds of Prey: And the Fantabulous Emancipation of One Harley Quinn

Год выхода: 2020

Жанр: Боевик, криминал, комедия

Режиссер: Кэти Янь

В ролях: Марго Робби, Джерни Смоллетт, Мэри Элизабет Уинстэд, Рози Перес, Элла Джей Баско, Юэн Макгрегор, Крис Мессина, Бояна Новакович, Али Вонг, Дэвид Ури







О фильме: Харли Квинн рассталась с Джокером и через некоторое время сообщила об этом всему Готэму, взорвав тот самый химзавод. Девушка больше не тоскует по несостоявшимся отношениям — ей некогда, так как она также потеряла неприкосновенность, и теперь за ней охотятся разной степени криминализованности граждане, которым она когда-либо наносила вред. А в это время ставший крёстным отцом Готема Роман Сайонис очень жаждет вернуть пропавший бриллиант, который стащила у его подручного малолетняя карманница.



Страна: США

Студия: Clubhouse Pictures (II), DC Entertainment, Kroll & Co. Entertainment

Продолжительность: 01:48:54

Перевод(ы): Дублированный | iTunes





Качество: BDRip 720p

Видео: MPEG-4 AVC, 1280x536, 4465 Kbit/s, 23.976 fps

Аудио #01: 48 kHz, AC3, 5.1, 384 Kbps | iTunes | RUS |

Аудио #02: 48 kHz, AC3, 2.0, 192 Kbps | iTunes | UKR |

Аудио #03: 48 kHz, AC3, 5.1, 640 Kbps | Оригинал | ENG |

Субтитры: Русские (Forced, Full), украинские (Forced), английские







MIGeneral

Unique ID : 301949260095527921500265378276754673503 (0xE3294FEA65784305F1AF6B7761014F5F)

Complete name : E:Video1111Birds.of.Prey.and.the.Fantabulous.Emancipation.of.One.Harley.Quinn.2020.D.BDRip.720p.seleZen.mkv

Format : Matroska

Format version : Version 4

File size : 4.32 GiB

Duration : 1 h 48 min

Overall bit rate : 5 681 kb/s

Movie name : Birds of Prey And the Fantabulous Emancipation of One Harley Quinn 2020 from селезень

Encoded date : UTC 2020-05-02 22:53:25

Writing application : mkvmerge v40.0.0 ('Old Town Road + Pony') 64-bit

Writing library : libebml v1.3.9 + libmatroska v1.5.2



Video

ID : 1

Format : AVC

Format/Info : Advanced Video Codec

Format profile : [email protected]

Format settings : CABAC / 12 Ref Frames

Format settings, CABAC : Yes

Format settings, Reference : 12 frames

Codec ID : V_MPEG4/ISO/AVC

Duration : 1 h 48 min

Bit rate : 4 465 kb/s

Width : 1 280 pixels

Height : 536 pixels

Display aspect ratio : 2.40:1

Frame rate mode : Constant

Frame rate : 23.976 (24000/1001) FPS

Color space : YUV

Chroma subsampling : 4:2:0

Bit depth : 8 bits

Scan type : Progressive

Bits/(Pixel*Frame) : 0.271

Stream size : 3.39 GiB (79%)

Title : Encoded by seleZen

Writing library : x264 core 142 r2431+42 c69a006 tMod [[email protected] X86_64]

Encoding settings : cabac=1 / ref=12 / deblock=1:-2:-2 / analyse=0x3:0x133 / me=umh / subme=10 / psy=1 / fade_compensate=0.00 / psy_rd=1.00:0.00 / mixed_ref=1 / me_range=32 / chroma_me=1 / trellis=2 / 8x8dct=1 / cqm=0 / deadzone=21,11 / fast_pskip=0 / chroma_qp_offset=-2 / threads=24 / lookahead_threads=4 / sliced_threads=0 / nr=0 / decimate=0 / interlaced=0 / bluray_compat=0 / constrained_intra=0 / fgo=0 / bframes=8 / b_pyramid=2 / b_adapt=2 / b_bias=0 / direct=3 / weightb=1 / open_gop=0 / weightp=2 / keyint=240 / keyint_min=23 / scenecut=40 / intra_refresh=0 / rc_lookahead=50 / rc=2pass / mbtree=0 / bitrate=4465 / ratetol=1.0 / qcomp=0.60 / qpmin=0:0:0 / qpmax=51:51:51 / qpstep=4 / cplxblur=20.0 / qblur=0.5 / vbv_maxrate=50000 / vbv_bufsize=62500 / nal_hrd=none / filler=0 / ip_ratio=1.40 / pb_ratio=1.30 / aq=3:0.80 / aq-sensitivity=10.00 / aq-factor=1.00:1.00:1.00 / aq2=0 / aq3=0

Language : English

Default : Yes

Forced : No



Audio #1

ID : 2

Format : AC-3

Format/Info : Audio Coding 3

Commercial name : Dolby Digital

Codec ID : A_AC3

Duration : 1 h 48 min

Bit rate mode : Constant

Bit rate : 384 kb/s

Channel(s) : 6 channels

Channel layout : L R C LFE Ls Rs

Sampling rate : 48.0 kHz

Frame rate : 31.250 FPS (1536 SPF)

Compression mode : Lossy

Stream size : 299 MiB (7%)

Title : iTunes

Language : Russian

Service kind : Complete Main

Default : Yes

Forced : Yes



Audio #2

ID : 3

Format : AC-3

Format/Info : Audio Coding 3

Commercial name : Dolby Digital

Codec ID : A_AC3

Duration : 1 h 48 min

Bit rate mode : Constant

Bit rate : 192 kb/s

Channel(s) : 2 channels

Channel layout : L R

Sampling rate : 48.0 kHz

Frame rate : 31.250 FPS (1536 SPF)

Compression mode : Lossy

Stream size : 150 MiB (3%)

Title : iTunes

Language : Ukrainian

Service kind : Complete Main

Default : No

Forced : No



Audio #3

ID : 4

Format : AC-3

Format/Info : Audio Coding 3

Commercial name : Dolby Digital

Codec ID : A_AC3

Duration : 1 h 48 min

Bit rate mode : Constant

Bit rate : 640 kb/s

Channel(s) : 6 channels

Channel layout : L R C LFE Ls Rs

Sampling rate : 48.0 kHz

Frame rate : 31.250 FPS (1536 SPF)

Compression mode : Lossy

Stream size : 499 MiB (11%)

Title : Original

Language : English

Service kind : Complete Main

Default : No

Forced : No



Text #1

ID : 5

Format : UTF-8

Codec ID : S_TEXT/UTF8

Codec ID/Info : UTF-8 Plain Text

Duration : 1 h 41 min

Bit rate : 3 b/s

Count of elements : 53

Stream size : 2.42 KiB (0%)

Title : Forced

Language : Russian

Default : Yes

Forced : Yes



Text #2

ID : 6

Format : UTF-8

Codec ID : S_TEXT/UTF8

Codec ID/Info : UTF-8 Plain Text

Duration : 1 h 48 min

Bit rate : 91 b/s

Count of elements : 1335

Stream size : 72.8 KiB (0%)

Title : Full

Language : Russian

Default : No

Forced : No



Text #3

ID : 7

Format : UTF-8

Codec ID : S_TEXT/UTF8

Codec ID/Info : UTF-8 Plain Text

Duration : 1 h 47 min

Bit rate : 3 b/s

Count of elements : 55

Stream size : 2.72 KiB (0%)

Title : Forced

Language : Ukrainian

Default : No

Forced : No



Text #4

ID : 8

Format : UTF-8

Codec ID : S_TEXT/UTF8

Codec ID/Info : UTF-8 Plain Text

Duration : 1 h 48 min

Bit rate : 53 b/s

Count of elements : 1586

Stream size : 42.5 KiB (0%)

Title : Full

Language : English

Default : No

Forced : No



Text #5

ID : 9

Format : UTF-8

Codec ID : S_TEXT/UTF8

Codec ID/Info : UTF-8 Plain Text

Duration : 1 h 48 min

Bit rate : 75 b/s

Count of elements : 2100

Stream size : 59.8 KiB (0%)

Title : SDH

Language : English

Default : No

Forced : No



Menu

00:00:00.000 : en:Chapter 01

00:08:08.446 : en:Chapter 02

00:17:53.739 : en:Chapter 03

00:27:11.839 : en:Chapter 04

00:35:40.805 : en:Chapter 05

00:44:48.352 : en:Chapter 06

00:53:43.387 : en:Chapter 07

01:01:15.547 : en:Chapter 08

01:10:55.960 : en:Chapter 09

01:19:06.492 : en:Chapter 10

01:24:28.146 : en:Chapter 11

01:34:27.996 : en:Chapter 12

01:41:26.998 : en:Chapter 13



Релиз от:



Discussion

Comments 0

Post Your Comment

Files in this torrent

FILENAMESIZE
Birds.of.Prey.and.the.Fantabulous.Emancipation.of.One.Harley.Quinn.2020.D.BDRip.720p.seleZen.mkv4.3 GB

Alternative Torrents for 'Birds of Prey and Fantabulous Emancipation of One Harley Quinn'.

TORRENT NAMEADDEDSIZESEEDSPEERSHEALTH
6/1/20204.8 GB00
6/1/20202.4 GB00
6/1/20201.1 GB00
5/31/20206 GB00
5/28/20201.4 GB00
5/28/20204.4 GB00
5/28/20202.2 GB00
5/28/20201.4 GB00
5/24/2020146 MB00
5/20/20202 GB00
5/19/20204.4 GB00
5/18/20201.6 GB00
5/15/20204.3 GB00
5/14/20205.1 GB00
5/13/202010.7 GB00