Extraction (2020) (1080p AMZN Webrip X265 10bit EAC3 5.1 - ArcX)[TAoE]

Torrent Details


Extraction (2020) (1080p AMZN Webrip x265 10bit EAC3 5.1 - ArcX)<span style=color:#fc9c6d>[TAoE]</span>

NAME
Extraction (2020) (1080p AMZN Webrip x265 10bit EAC3 5.1 - ArcX)[TAoE].torrent
CATEGORY
Movies
INFOHASH
a683610360b8cac02e4c4485fa284971c6d5fbcc
SIZE
2.9 GB in 1 file
ADDED
Uploaded on 03-05-2020 by our crawler pet called "Spidey".
SWARM
0 seeders & 0 peers
RATING
No votes yet.

Please login to vote for this torrent.


Description









Extraction (2020) IMDB















Media Information



General

Unique ID                                : 6768534535216022842180049562310533330 (0x51792847CCE4FEF29E58ACF5C23E0D2)

Complete name                            : Extraction (2020) (1080p AMZN Webrip x265 10bit EAC3 5.1 - ArcX)[TAoE].mkv

Format                                   : Matroska

Format version                           : Version 4

File size                                : 2.86 GiB

Duration                                 : 1 h 57 min

Overall bit rate                         : 3 482 kb/s

Movie name                               : Extraction (2020) (1080p AMZN Webrip x265 10bit EAC3 5.1 - ArcX)[TAoE].mkv

Writing application                      : Lavf58.29.100

Writing library                          : Lavf58.29.100

ErrorDetectionType                       : Per level 1



Video

ID                                       : 1

Format                                   : HEVC

Format/Info                              : High Efficiency Video Coding

Format profile                           : Main [email protected]@Main

Codec ID                                 : V_MPEGH/ISO/HEVC

Duration                                 : 1 h 57 min

Bit rate                                 : 2 709 kb/s

Width                                    : 1 920 pixels

Height                                   : 1 080 pixels

Display aspect ratio                     : 16:9

Frame rate mode                          : Constant

Frame rate                               : 24.000 FPS

Color space                              : YUV

Chroma subsampling                       : 4:2:0

Bit depth                                : 10 bits

Bits/(Pixel*Frame)                       : 0.054

Stream size                              : 2.22 GiB (78%)

Title                                    : Encoded by ArcX for TAoE

Writing library                          : x265 3.2.1+1-b5c86a64bbbe:[Linux][GCC 9.2.1][64 bit] 10bit

Encoding settings                        : cpuid=1111039 / frame-threads=2 / wpp / no-pmode / no-pme / no-psnr / no-ssim / log-level=2 / input-csp=1 / input-res=1920x1080 / interlace=0 / total-frames=0 / level-idc=0 / high-tier=1 / uhd-bd=0 / ref=4 / no-allow-non-conformance / no-repeat-headers / annexb / no-aud / no-hrd / info / hash=0 / no-temporal-layers / open-gop / min-keyint=24 / keyint=250 / gop-lookahead=0 / bframes=8 / b-adapt=2 / b-pyramid / bframe-bias=0 / rc-lookahead=80 / lookahead-slices=4 / scenecut=40 / radl=0 / no-splice / no-intra-refresh / ctu=64 / min-cu-size=8 / no-rect / no-amp / max-tu-size=32 / tu-inter-depth=1 / tu-intra-depth=1 / limit-tu=0 / rdoq-level=2 / dynamic-rd=0.00 / no-ssim-rd / signhide / no-tskip / nr-intra=0 / nr-inter=0 / no-constrained-intra / no-strong-intra-smoothing / max-merge=3 / limit-refs=3 / limit-modes / me=3 / subme=5 / merange=57 / temporal-mvp / no-hme / weightp / no-weightb / no-analyze-src-pics / deblock=0:0 / sao / no-sao-non-deblock / rd=4 / selective-sao=4 / no-early-skip / rskip / no-fast-intra / no-tskip-fast / no-cu-lossless / no-b-intra / no-splitrd-skip / rdpenalty=0 / psy-rd=1.30 / psy-rdoq=2.00 / no-rd-refine / no-lossless / cbqpoffs=0 / crqpoffs=0 / rc=crf / crf=20.0 / qcomp=0.60 / qpstep=4 / stats-write=0 / stats-read=0 / ipratio=1.40 / pbratio=1.30 / aq-mode=4 / aq-strength=1.10 / cutree / zone-count=0 / no-strict-cbr / qg-size=32 / no-rc-grain / qpmax=69 / qpmin=0 / no-const-vbv / sar=1 / overscan=0 / videoformat=5 / range=0 / colorprim=2 / transfer=2 / colormatrix=2 / chromaloc=0 / display-window=0 / cll=0,0 / min-luma=0 / max-luma=1023 / log2-max-poc-lsb=8 / vui-timing-info / vui-hrd-info / slices=1 / no-opt-qp-pps / no-opt-ref-list-length-pps / no-multi-pass-opt-rps / scenecut-bias=0.05 / no-opt-cu-delta-qp / no-aq-motion / no-hdr / no-hdr-opt / no-dhdr10-opt / no-idr-recovery-sei / analysis-reuse-level=5 / scale-factor=0 / refine-intra=0 / refine-inter=0 / refine-mv=1 / refine-ctu-distortion=0 / no-limit-sao / ctu-info=0 / no-lowpass-dct / refine-analysis-type=0 / copy-pic=1 / max-ausize-factor=1.0 / no-dynamic-refine / no-single-sei / no-hevc-aq / no-svt / no-field / qp-adaptation-range=1.00

Default                                  : Yes

Forced                                   : No

Color range                              : Limited



Audio

ID                                       : 2

Format                                   : E-AC-3 JOC

Format/Info                              : Enhanced AC-3 with Joint Object Coding

Commercial name                          : Dolby Digital Plus with Dolby Atmos

Codec ID                                 : A_EAC3

Duration                                 : 1 h 57 min

Bit rate mode                            : Constant

Bit rate                                 : 768 kb/s

Channel(s)                               : 6 channels

Channel layout                           : L R C LFE Ls Rs

Sampling rate                            : 48.0 kHz

Frame rate                               : 31.250 FPS (1536 SPF)

Bit depth                                : 32 bits

Compression mode                         : Lossy

Stream size                              : 645 MiB (22%)

Language                                 : English

Service kind                             : Complete Main

Default                                  : Yes

Forced                                   : No

Complexity index                         : 16

Number of dynamic objects                : 15

Bed channel count                        : 1 channel

Bed channel configuration                : LFE



Text #1

ID                                       : 3

Format                                   : UTF-8

Codec ID                                 : S_TEXT/UTF8

Codec ID/Info                            : UTF-8 Plain Text

Duration                                 : 1 h 22 min

Bit rate                                 : 6 b/s

Count of elements                        : 167

Stream size                              : 3.83 KiB (0%)

Title                                    : Forced

Language                                 : English

Default                                  : No

Forced                                   : Yes



Text #2

ID                                       : 4

Format                                   : UTF-8

Codec ID                                 : S_TEXT/UTF8

Codec ID/Info                            : UTF-8 Plain Text

Duration                                 : 1 h 34 min

Bit rate                                 : 27 b/s

Count of elements                        : 717

Stream size                              : 19.1 KiB (0%)

Language                                 : English

Default                                  : No

Forced                                   : No



Text #3

ID                                       : 5

Format                                   : UTF-8

Codec ID                                 : S_TEXT/UTF8

Codec ID/Info                            : UTF-8 Plain Text

Duration                                 : 1 h 39 min

Bit rate                                 : 34 b/s

Count of elements                        : 925

Stream size                              : 24.9 KiB (0%)

Title                                    : SDH

Language                                 : English

Default                                  : No

Forced                                   : No



Text #4

ID                                       : 6

Format                                   : UTF-8

Codec ID                                 : S_TEXT/UTF8

Codec ID/Info                            : UTF-8 Plain Text

Duration                                 : 1 h 55 min

Bit rate                                 : 34 b/s

Count of elements                        : 685

Stream size                              : 29.6 KiB (0%)

Language                                 : Arabic

Default                                  : No

Forced                                   : No



Text #5

ID                                       : 7

Format                                   : UTF-8

Codec ID                                 : S_TEXT/UTF8

Codec ID/Info                            : UTF-8 Plain Text

Duration                                 : 1 h 55 min

Bit rate                                 : 19 b/s

Count of elements                        : 691

Stream size                              : 16.3 KiB (0%)

Language                                 : Czech

Default                                  : No

Forced                                   : No



Text #6

ID                                       : 8

Format                                   : UTF-8

Codec ID                                 : S_TEXT/UTF8

Codec ID/Info                            : UTF-8 Plain Text

Duration                                 : 1 h 55 min

Bit rate                                 : 19 b/s

Count of elements                        : 673

Stream size                              : 16.4 KiB (0%)

Language                                 : Danish

Default                                  : No

Forced                                   : No



Text #7

ID                                       : 9

Format                                   : UTF-8

Codec ID                                 : S_TEXT/UTF8

Codec ID/Info                            : UTF-8 Plain Text

Duration                                 : 1 h 55 min

Bit rate                                 : 20 b/s

Count of elements                        : 680

Stream size                              : 17.6 KiB (0%)

Language                                 : German

Default                                  : No

Forced                                   : No



Text #8

ID                                       : 10

Format                                   : UTF-8

Codec ID                                 : S_TEXT/UTF8

Codec ID/Info                            : UTF-8 Plain Text

Duration                                 : 1 h 55 min

Bit rate                                 : 32 b/s

Count of elements                        : 699

Stream size                              : 27.6 KiB (0%)

Language                                 : Greek

Default                                  : No

Forced                                   : No



Text #9

ID                                       : 11

Format                                   : UTF-8

Codec ID                                 : S_TEXT/UTF8

Codec ID/Info                            : UTF-8 Plain Text

Duration                                 : 1 h 55 min

Bit rate                                 : 19 b/s

Count of elements                        : 697

Stream size                              : 16.5 KiB (0%)

Language                                 : Spanish

Default                                  : No

Forced                                   : No



Text #10

ID                                       : 12

Format                                   : UTF-8

Codec ID                                 : S_TEXT/UTF8

Codec ID/Info                            : UTF-8 Plain Text

Duration                                 : 1 h 55 min

Bit rate                                 : 20 b/s

Count of elements                        : 722

Stream size                              : 17.1 KiB (0%)

Title                                    : European

Language                                 : Spanish

Default                                  : No

Forced                                   : No



Text #11

ID                                       : 13

Format                                   : UTF-8

Codec ID                                 : S_TEXT/UTF8

Codec ID/Info                            : UTF-8 Plain Text

Duration                                 : 1 h 55 min

Bit rate                                 : 19 b/s

Count of elements                        : 674

Stream size                              : 16.1 KiB (0%)

Language                                 : Finnish

Default                                  : No

Forced                                   : No



Text #12

ID                                       : 14

Format                                   : UTF-8

Codec ID                                 : S_TEXT/UTF8

Codec ID/Info                            : UTF-8 Plain Text

Duration                                 : 1 h 55 min

Bit rate                                 : 20 b/s

Count of elements                        : 689

Stream size                              : 17.1 KiB (0%)

Language                                 : French

Default                                  : No

Forced                                   : No



Text #13

ID                                       : 15

Format                                   : UTF-8

Codec ID                                 : S_TEXT/UTF8

Codec ID/Info                            : UTF-8 Plain Text

Duration                                 : 1 h 55 min

Bit rate                                 : 33 b/s

Count of elements                        : 677

Stream size                              : 28.1 KiB (0%)

Language                                 : Hebrew

Default                                  : No

Forced                                   : No



Text #14

ID                                       : 16

Format                                   : UTF-8

Codec ID                                 : S_TEXT/UTF8

Codec ID/Info                            : UTF-8 Plain Text

Duration                                 : 1 h 55 min

Bit rate                                 : 19 b/s

Count of elements                        : 674

Stream size                              : 16.2 KiB (0%)

Language                                 : Hungarian

Default                                  : No

Forced                                   : No



Text #15

ID                                       : 17

Format                                   : UTF-8

Codec ID                                 : S_TEXT/UTF8

Codec ID/Info                            : UTF-8 Plain Text

Duration                                 : 1 h 55 min

Bit rate                                 : 20 b/s

Count of elements                        : 668

Stream size                              : 17.1 KiB (0%)

Language                                 : Indonesian

Default                                  : No

Forced                                   : No



Text #16

ID                                       : 18

Format                                   : UTF-8

Codec ID                                 : S_TEXT/UTF8

Codec ID/Info                            : UTF-8 Plain Text

Duration                                 : 1 h 55 min

Bit rate                                 : 19 b/s

Count of elements                        : 664

Stream size                              : 16.8 KiB (0%)

Language                                 : Italian

Default                                  : No

Forced                                   : No



Text #17

ID                                       : 19

Format                                   : UTF-8

Codec ID                                 : S_TEXT/UTF8

Codec ID/Info                            : UTF-8 Plain Text

Duration                                 : 1 h 55 min

Bit rate                                 : 20 b/s

Count of elements                        : 689

Stream size                              : 17.0 KiB (0%)

Language                                 : Japanese

Default                                  : No

Forced                                   : No



Text #18

ID                                       : 20

Format                                   : UTF-8

Codec ID                                 : S_TEXT/UTF8

Codec ID/Info                            : UTF-8 Plain Text

Duration                                 : 1 h 55 min

Bit rate                                 : 23 b/s

Count of elements                        : 679

Stream size                              : 20.0 KiB (0%)

Language                                 : Korean

Default                                  : No

Forced                                   : No



Text #19

ID                                       : 21

Format                                   : UTF-8

Codec ID                                 : S_TEXT/UTF8

Codec ID/Info                            : UTF-8 Plain Text

Duration                                 : 1 h 55 min

Bit rate                                 : 18 b/s

Count of elements                        : 655

Stream size                              : 16.0 KiB (0%)

Language                                 : Norwegian Bokmal

Default                                  : No

Forced                                   : No



Text #20

ID                                       : 22

Format                                   : UTF-8

Codec ID                                 : S_TEXT/UTF8

Codec ID/Info                            : UTF-8 Plain Text

Duration                                 : 1 h 55 min

Bit rate                                 : 19 b/s

Count of elements                        : 667

Stream size                              : 16.1 KiB (0%)

Language                                 : Dutch

Default                                  : No

Forced                                   : No



Text #21

ID                                       : 23

Format                                   : UTF-8

Codec ID                                 : S_TEXT/UTF8

Codec ID/Info                            : UTF-8 Plain Text

Duration                                 : 1 h 55 min

Bit rate                                 : 17 b/s

Count of elements                        : 668

Stream size                              : 14.4 KiB (0%)

Language                                 : Polish

Default                                  : No

Forced                                   : No



Text #22

ID                                       : 24

Format                                   : UTF-8

Codec ID                                 : S_TEXT/UTF8

Codec ID/Info                            : UTF-8 Plain Text

Duration                                 : 1 h 55 min

Bit rate                                 : 20 b/s

Count of elements                        : 691

Stream size                              : 16.9 KiB (0%)

Language                                 : Portuguese

Default                                  : No

Forced                                   : No



Text #23

ID                                       : 25

Format                                   : UTF-8

Codec ID                                 : S_TEXT/UTF8

Codec ID/Info                            : UTF-8 Plain Text

Duration                                 : 1 h 55 min

Bit rate                                 : 19 b/s

Count of elements                        : 672

Stream size                              : 16.3 KiB (0%)

Title                                    : Brazilian

Language                                 : Portuguese

Default                                  : No

Forced                                   : No



Text #24

ID                                       : 26

Format                                   : UTF-8

Codec ID                                 : S_TEXT/UTF8

Codec ID/Info                            : UTF-8 Plain Text

Duration                                 : 1 h 55 min

Bit rate                                 : 23 b/s

Count of elements                        : 687

Stream size                              : 19.5 KiB (0%)

Language                                 : Romanian

Default                                  : No

Forced                                   : No



Text #25

ID                                       : 27

Format                                   : UTF-8

Codec ID                                 : S_TEXT/UTF8

Codec ID/Info                            : UTF-8 Plain Text

Duration                                 : 1 h 55 min

Bit rate                                 : 30 b/s

Count of elements                        : 675

Stream size                              : 26.2 KiB (0%)

Language                                 : Russian

Default                                  : No

Forced                                   : No



Text #26

ID                                       : 28

Format                                   : UTF-8

Codec ID                                 : S_TEXT/UTF8

Codec ID/Info                            : UTF-8 Plain Text

Duration                                 : 1 h 55 min

Bit rate                                 : 19 b/s

Count of elements                        : 620

Stream size                              : 16.9 KiB (0%)

Language                                 : Swedish

Default                                  : No

Forced                                   : No



Text #27

ID                                       : 29

Format                                   : UTF-8

Codec ID                                 : S_TEXT/UTF8

Codec ID/Info                            : UTF-8 Plain Text

Duration                                 : 1 h 55 min

Bit rate                                 : 51 b/s

Count of elements                        : 681

Stream size                              : 43.2 KiB (0%)

Language                                 : Thai

Default                                  : No

Forced                                   : No



Text #28

ID                                       : 30

Format                                   : UTF-8

Codec ID                                 : S_TEXT/UTF8

Codec ID/Info                            : UTF-8 Plain Text

Duration                                 : 1 h 55 min

Bit rate                                 : 19 b/s

Count of elements                        : 661

Stream size                              : 16.7 KiB (0%)

Language                                 : Turkish

Default                                  : No

Forced                                   : No



Text #29

ID                                       : 31

Format                                   : UTF-8

Codec ID                                 : S_TEXT/UTF8

Codec ID/Info                            : UTF-8 Plain Text

Duration                                 : 1 h 55 min

Bit rate                                 : 28 b/s

Count of elements                        : 674

Stream size                              : 24.3 KiB (0%)

Language                                 : Vietnamese

Default                                  : No

Forced                                   : No



Text #30

ID                                       : 32

Format                                   : UTF-8

Codec ID                                 : S_TEXT/UTF8

Codec ID/Info                            : UTF-8 Plain Text

Duration                                 : 1 h 55 min

Bit rate                                 : 22 b/s

Count of elements                        : 681

Stream size                              : 19.2 KiB (0%)

Title                                    : Simplified

Language                                 : Chinese

Default                                  : No

Forced                                   : No



Text #31

ID                                       : 33

Format                                   : UTF-8

Codec ID                                 : S_TEXT/UTF8

Codec ID/Info                            : UTF-8 Plain Text

Duration                                 : 1 h 55 min

Bit rate                                 : 21 b/s

Count of elements                        : 744

Stream size                              : 18.5 KiB (0%)

Title                                    : Traditional

Language                                 : Chinese

Default                                  : No

Forced                                   : No





Source

1080p AMZN WEB-DL NTG



Hello everyone,

We are TAoE, a small team of passionate encoders who love encoding. We try our best to provide you with high quality releases.

If you would like to join the team just drop us a comment or send us a message.





.........................................................................................................................................

Discussion

Comments 0

Post Your Comment

Files in this torrent

FILENAMESIZE
Extraction (2020) (1080p AMZN Webrip x265 10bit EAC3 5.1 - ArcX)[TAoE].mkv2.9 GB

Alternative Torrents for 'Extraction bit EAC ArcX'.

TORRENT NAMEADDEDSIZESEEDSPEERSHEALTH
6/17/20205 GB13813
6/27/20201.3 GB425
6/26/20201.1 GB382
6/25/2020522 MB312
6/28/202026.4 GB2760
6/22/20201.1 GB273
6/24/2020624 MB262
6/17/202016.4 GB183
6/26/2020624 MB173
6/26/20201.2 GB113
6/21/20201.2 GB115
6/20/20202.5 GB84
6/17/20209.3 GB71
6/15/2020371 kB72
6/18/2020551 MB61