Bloodshot (2020) BDRip-1080p MegaPeer (qqss44)

Torrent Details

Bloodshot (2020) BDRip-1080p MegaPeer (qqss44)
Bloodshot (2020) BDRip-1080p MegaPeer (qqss44)

NAME
Bloodshot (2020) BDRip-1080p MegaPeer (qqss44).torrent
CATEGORY
Movies
INFOHASH
cd0a4ad1387a2606a9b0206c2c740c3254c85ef4
SIZE
7.6 GB in 1 file
ADDED
Uploaded on 03-05-2020 by our crawler pet called "Spidey".
SWARM
0 seeders & 0 peers
RATING
No votes yet.

Please login to vote for this torrent.


Description

Анонсы 1080p от qqss44



Информация о фильме

Название: Бладшот

Оригинальное название: Bloodshot

Год выхода: 2020

Жанр: Фантастика, боевик

Режиссер: Дэйв Уилсон

В ролях: Вин Дизель, Гай Пирс, Ламорн Моррис, Эйса Гонсалес, Сэм Хьюэн, Сиддхартх Дхананджай, Талула Райли, Тоби Кеббелл, Йоуханнес Хёйкьюр, Йоуханнессон, Алекс Эрнандез и другие



О фильме:

Корпорация ТПД возвращает к жизни недавно убитого солдата Рэя Гаррисона. Армия нанороботов в его крови превратила Рэя в бессмертного Бладшота, наделенного сверхчеловеческой силой и способностью мгновенно самоисцеляться. Контролируя тело Рэя, компания влияет на его разум и воспоминания. Но герой пойдет на все, чтобы выяснить правду.







Страна: Китай, США

Студия: Bona Film Group, Columbia Pictures Corporation, Cross Creek Pictures, One Race Films, Original Film, Sony Pictures Entertainment (SPE), The Hideaway Entertainment, Valiant Entertainment

Продолжительность: 01:49:19

Перевод: Дублированный | iTunes



Файл

Формат: MKV, BDRip 1080p

Видео: MPEG-4 AVC, 9515 Кбит/с, 1920x804

Aудио#1: [RUS] AC3 | 48 KHz | 5.1 (Front: L С R Side: L R) + LFE | ~384 kbps

Субтитры: русские форсированные и полные (отключаемые, srt)

Релиз от:

.



Скриншоты



МИ

Общее

Уникальный идентификатор : 211964244746598699100546632929221598821 (0x9F76D41FC3BF63E8A294F4E428B8DE65)

Полное имя : H:Bloodshot.(2020).BDRip-1080p.MegaPeer.(qqss44).mkv

Формат : Matroska

Версия формата : Version 2

Размер файла : 7, 56 Гбайт

Продолжительность : 1 ч. 49 м.

Общий поток : 9 898 Кбит/сек

Название фильма : Bloodshot.(2020).BDRip-1080p.MegaPeer.(qqss44)

Дата кодирования : UTC 2020-05-03 13:15:48

Программа кодирования : mkvmerge v7.8.0 ('River Man') 32bit built on Apr 3 2015 12:11:22

Библиотека кодирования : libebml v1.3.1 + libmatroska v1.4.2



Видео

Идентификатор : 1

Формат : AVC

Формат/Информация : Advanced Video Codec

Профиль формата : [email protected]

Настройки формата : CABAC / 5 Ref Frames

Параметр CABAC формата : Да

Параметр RefFrames формата : 5 кадров

Идентификатор кодека : V_MPEG4/ISO/AVC

Продолжительность : 1 ч. 49 м.

Битрейт : 9 515 Кбит/сек

Ширина : 1 920 пикселей

Высота : 804 пикселя

Соотношение сторон : 2, 40:1

Режим частоты кадров : Постоянный

Частота кадров : 23, 976 (24000/1001) кадра/сек

Цветовое пространство : YUV

Субдискретизация насыщенности : 4:2:0

Битовая глубина : 8 бит

Тип развёртки : Прогрессивная

Бит/(Пиксели*Кадры) : 0.257

Размер потока : 7, 11 Гбайт (94%)

Библиотека кодирования : x264 core 152 r2851 ba24899

Настройки программы : cabac=1 / ref=5 / deblock=1:-1:-1 / analyse=0x3:0x113 / me=umh / subme=11 / psy=1 / psy_rd=1.00:0.00 / mixed_ref=1 / me_range=32 / chroma_me=1 / trellis=2 / 8x8dct=1 / cqm=0 / deadzone=21, 11 / fast_pskip=0 / chroma_qp_offset=-2 / threads=12 / lookahead_threads=2 / sliced_threads=0 / nr=0 / decimate=0 / interlaced=0 / bluray_compat=0 / constrained_intra=0 / bframes=9 / b_pyramid=2 / b_adapt=2 / b_bias=0 / direct=3 / weightb=1 / open_gop=0 / weightp=2 / keyint=250 / keyint_min=23 / scenecut=40 / intra_refresh=0 / rc_lookahead=40 / rc=2pass / mbtree=0 / bitrate=9515 / ratetol=1.0 / qcomp=0.70 / qpmin=0 / qpmax=69 / qpstep=4 / cplxblur=20.0 / qblur=0.5 / vbv_maxrate=50000 / vbv_bufsize=62500 / nal_hrd=none / filler=0 / ip_ratio=1.40 / pb_ratio=1.30 / aq=3:0.80

Язык : English

Default : Да

Forced : Нет

Duration_Source : General_Duration



Аудио

Идентификатор : 2

Формат : AC-3

Формат/Информация : Audio Coding 3

Коммерческое название : Dolby Digital

Идентификатор кодека : A_AC3

Продолжительность : 1 ч. 49 м.

Вид битрейта : Постоянный

Битрейт : 384 Кбит/сек

Каналы : 6 каналов

Channel layout : L R C LFE Ls Rs

Частота : 48, 0 КГц

Частота кадров : 31, 250 кадров/сек (1536 SPF)

Метод сжатия : С потерями

Размер потока : 300 Мбайт (4%)

Язык : Russian

Service kind : Complete Main

Default : Да

Forced : Нет

Duration_Source : General_Duration



Текст #1

Идентификатор : 3

Формат : UTF-8

Идентификатор кодека : S_TEXT/UTF8

Идентификатор кодека/Информация : UTF-8 Plain Text

Заголовок : FORCED

Язык : Russian

Default : Да

Forced : Нет



Текст #2

Идентификатор : 4

Формат : UTF-8

Идентификатор кодека : S_TEXT/UTF8

Идентификатор кодека/Информация : UTF-8 Plain Text

Заголовок : FULL

Язык : Russian

Default : Нет

Forced : Нет



Меню

00:00:00.000 : en:Chapter 01

00:07:06.384 : en:Chapter 02

00:13:56.210 : en:Chapter 03

00:20:36.861 : en:Chapter 04

00:25:05.546 : en:Chapter 05

00:32:11.179 : en:Chapter 06

00:41:41.499 : en:Chapter 07

00:46:39.380 : en:Chapter 08

00:53:35.629 : en:Chapter 09

01:02:28.495 : en:Chapter 10

01:08:59.344 : en:Chapter 11

01:12:42.525 : en:Chapter 12

01:19:15.918 : en:Chapter 13

01:26:49.996 : en:Chapter 14

01:31:07.379 : en:Chapter 15

01:38:31.531 : en:Chapter 16

01:44:11.245 : en:Chapter 17

Discussion

Comments 0

Post Your Comment

Files in this torrent

FILENAMESIZE
Bloodshot.(2020).BDRip-1080p.MegaPeer.(qqss44).mkv7.6 GB

Alternative Torrents for 'Bloodshot qqss'.

TORRENT NAMEADDEDSIZESEEDSPEERSHEALTH
6/17/20201.2 GB4212
6/26/20209.4 GB338
6/17/20201.1 GB265
6/18/20201.1 GB234
6/18/2020946 MB209
6/17/20201.3 GB204
6/18/20203.7 GB198
6/17/20204 GB1811
6/22/20201.2 GB153
6/22/20201.3 GB157
6/18/2020871 MB154
6/17/20201.3 GB156
6/18/20201.3 GB145
6/18/20204.2 GB810
6/18/20203.9 GB82