LEGO Scooby Doo Knight Time Terror (2015) 1080p 5 1 - 2 0 X264 Phun Psyz

Torrent Details


LEGO Scooby Doo Knight Time Terror <span style=color:#777>(2015)</span> 1080p 5 1 - 2 0 x264 Phun Psyz

NAME
LEGO Scooby Doo Knight Time Terror (2015) 1080p 5 1 - 2 0 x264 Phun Psyz.torrent
CATEGORY
Television
INFOHASH
aece4cec8c337f457f510fe8459589f9e95d0b23
SIZE
318 MB in 1 file
ADDED
Uploaded on 03-05-2020 by our crawler pet called "Spidey".
SWARM
0 seeders & 0 peers
RATING
No votes yet.

Please login to vote for this torrent.


Description

May not reply to all comments, but do read them all; ignore the haters



www.imdb.com/title/tt5377164



The Scooby Gang go to the grand reopening of Grimsly Mansion and find themselves in a mystery to find a lost treasure.



Source: NTb (Amzn)







Format                      : MPEG-4

Format profile              : Base Media / Version 2

Codec ID                    : mp42 (isom/iso2/avc1/mp41)

File size                   : 318 MiB

Duration                    : 22 min 32 s

Overall bit rate mode       : Variable

Overall bit rate            : 1 971 kb/s

Writing application         : HandBrake 1.2.0 2018121700



Video

ID                          : 1

Format                      : AVC

Format/Info                 : Advanced Video Codec

Format profile              : [email protected]

Format settings             : CABAC / 1 Ref Frames

Format settings, CABAC      : Yes

Format settings, Reference  : 1 frame

Codec ID                    : avc1

Codec ID/Info               : Advanced Video Coding

Duration                    : 22 min 32 s

Bit rate                    : 1 483 kb/s

Width                       : 1 920 pixels

Height                      : 1 080 pixels

Display aspect ratio        : 16:9

Frame rate mode             : Variable

Frame rate                  : 23.976 (23976/1000) FPS

Color space                 : YUV

Chroma subsampling          : 4:2:0

Bit depth                   : 8 bits

Scan type                   : Progressive

Bits/(Pixel*Frame)          : 0.030

Stream size                 : 239 MiB (75%)

Writing library             : x264 core 157 r2935 545de2f

Color range                 : Limited

Color primaries             : BT.709

Transfer characteristics    : BT.709

Matrix coefficients         : BT.709



Audio #1

ID                          : 2

Format                      : AC-3

Format/Info                 : Audio Coding 3

Commercial name             : Dolby Digital

Codec ID                    : ac-3

Duration                    : 22 min 32 s

Bit rate mode               : Constant

Bit rate                    : 320 kb/s

Channel(s)                  : 6 channels

Channel layout              : L R C LFE Ls Rs

Sampling rate               : 48.0 kHz

Frame rate                  : 31.250 FPS (1536 SPF)

Bit depth                   : 16 bits

Compression mode            : Lossy

Stream size                 : 51.6 MiB (16%)

Title                       : Surround

Language                    : English

Service kind                : Complete Main

Default                     : Yes



Audio #2

ID                          : 3

Format                      : AAC LC

Format/Info                 : Advanced Audio Codec Low Complexity

Codec ID                    : mp4a-40-2

Duration                    : 22 min 32 s

Bit rate mode               : Constant

Bit rate                    : 161 kb/s

Channel(s)                  : 2 channels

Channel layout              : L R

Sampling rate               : 48.0 kHz

Frame rate                  : 46.875 FPS (1024 SPF)

Compression mode            : Lossy

Stream size                 : 25.9 MiB (8%)

Title                       : Stereo

Language                    : English



Text

Language                    : English

Default                     : Yes

Forced                      : No

Discussion

Comments 0

Post Your Comment

Files in this torrent

FILENAMESIZE
LEGO Scooby Doo Knight Time Terror (2015) 1080p 5.1 - 2.0 x264 Phun Psyz.mp4317.8 MB

Alternative Torrents for 'LEGO Scooby Doo Knight Time Terror Phun Psyz'.

TORRENT NAMEADDEDSIZESEEDSPEERSHEALTH
5/3/2020318 MB00