Birds Of Prey And The Fantabulous Emancipation Of One Harley Quinn 2020 D MVO BDREMUX 2160p HDR SeleZen

Torrent Details

Birds of Prey and the Fantabulous Emancipation of One Harley Quinn 2020 D MVO BDREMUX 2160p HDR<span style=color:#fc9c6d> seleZen</span>
Birds of Prey and the Fantabulous Emancipation of One Harley Quinn 2020 D MVO BDREMUX 2160p HDR<span style=color:#fc9c6d> seleZen</span>

NAME
Birds of Prey and the Fantabulous Emancipation of One Harley Quinn 2020 D MVO BDREMUX 2160p HDR seleZen.torrent
CATEGORY
Movies
INFOHASH
bdd600127ee48444a0146788013333dfac224838
SIZE
49.7 GB in 1 file
ADDED
Uploaded on 04-05-2020 by our crawler pet called "Spidey".
SWARM
0 seeders & 0 peers
RATING
No votes yet.

Please login to vote for this torrent.


Description

Информация о фильме

Название: Хищные птицы: Потрясающая история Харли Квинн

Оригинальное название: Birds of Prey: And the Fantabulous Emancipation of One Harley Quinn

Год выхода: 2020

Жанр: Боевик, криминал, комедия

Режиссер: Кэти Янь

В ролях: Марго Робби, Джерни Смоллетт, Мэри Элизабет Уинстэд, Рози Перес, Элла Джей Баско, Юэн Макгрегор, Крис Мессина, Бояна Новакович, Али Вонг, Дэвид Ури







О фильме: Харли Квинн рассталась с Джокером и через некоторое время сообщила об этом всему Готэму, взорвав тот самый химзавод. Девушка больше не тоскует по несостоявшимся отношениям — ей некогда, так как она также потеряла неприкосновенность, и теперь за ней охотятся разной степени криминализованности граждане, которым она когда-либо наносила вред. А в это время ставший крёстным отцом Готема Роман Сайонис очень жаждет вернуть пропавший бриллиант, который стащила у его подручного малолетняя карманница.



Страна: США

Студия: Clubhouse Pictures (II), DC Entertainment, Kroll & Co. Entertainment

Продолжительность: 01:48:54

Перевод(ы):

#1: Дублированный | iTunes

#2: Профессиональный многоголосый | HDRezka Studio



Качество: BDRemux 2160p

Видео: 3840x2160 at 23.976 fps, MPEG-H HEVC HDR Video, 59900 kbps avg

Аудио #01: 48 kHz, AC3, 5.1, 384 Kbps | iTunes | RUS |

Аудио #02: 48 kHz, AC3, 5.1, 448 Kbps | HDRezka Studio | RUS |

Аудио #03: 48 kHz, AC3, 2.0, 192 Kbps | iTunes | UKR |

Аудио #04: 48 kHz, TrueHD, 7.1, 3686 Kbps | Оригинал | ENG |

Аудио #05: 48 kHz, AC3, 5.1, 640 Kbps | Оригинал | ENG |

Субтитры: Русские (Forced, Full), украинские (Forced), английские







MIGeneral

Unique ID : 30632456825617810396540836494627256122 (0x170B98B9EDFAB6CC5C123CB92DC3373A)

Complete name : E:Video111Birds.of.Prey.and.the.Fantabulous.Emancipation.of.One.Harley.Quinn.2020.D.MVO.BDREMUX.2160p.HDR.seleZen.mkv

Format : Matroska

Format version : Version 4

File size : 49.7 GiB

Duration : 1 h 48 min

Overall bit rate mode : Variable

Overall bit rate : 65.3 Mb/s

Movie name : Birds of Prey: And the Fantabulous Emancipation of One Harley Quinn 2020 from селезень

Encoded date : UTC 2020-05-04 14:48:38

Writing application : mkvmerge v40.0.0 ('Old Town Road + Pony') 64-bit

Writing library : libebml v1.3.9 + libmatroska v1.5.2



Video

ID : 1

Format : HEVC

Format/Info : High Efficiency Video Coding

Format profile : Main [email protected]@High

HDR format : SMPTE ST 2094 App 4, Version 1, HDR10+ Profile B compatible

Codec ID : V_MPEGH/ISO/HEVC

Duration : 1 h 48 min

Bit rate : 59.9 Mb/s

Width : 3 840 pixels

Height : 2 160 pixels

Display aspect ratio : 16:9

Frame rate mode : Constant

Frame rate : 23.976 (24000/1001) FPS

Color space : YUV

Chroma subsampling : 4:2:0 (Type 2)

Bit depth : 10 bits

Bits/(Pixel*Frame) : 0.301

Stream size : 45.5 GiB (92%)

Language : English

Default : Yes

Forced : No

Color range : Limited

Color primaries : BT.2020

Transfer characteristics : PQ

Matrix coefficients : BT.2020 non-constant

Mastering display color pri : BT.2020

Mastering display luminance : min: 0.0050 cd/m2, max: 4000 cd/m2

Maximum Content Light Level : 683 cd/m2

Maximum Frame-Average Light : 136 cd/m2



Audio #1

ID : 2

Format : AC-3

Format/Info : Audio Coding 3

Commercial name : Dolby Digital

Codec ID : A_AC3

Duration : 1 h 48 min

Bit rate mode : Constant

Bit rate : 384 kb/s

Channel(s) : 6 channels

Channel layout : L R C LFE Ls Rs

Sampling rate : 48.0 kHz

Frame rate : 31.250 FPS (1536 SPF)

Compression mode : Lossy

Stream size : 299 MiB (1%)

Title : iTunes

Language : Russian

Service kind : Complete Main

Default : Yes

Forced : Yes



Audio #2

ID : 3

Format : AC-3

Format/Info : Audio Coding 3

Commercial name : Dolby Digital

Codec ID : A_AC3

Duration : 1 h 48 min

Bit rate mode : Constant

Bit rate : 448 kb/s

Channel(s) : 6 channels

Channel layout : L R C LFE Ls Rs

Sampling rate : 48.0 kHz

Frame rate : 31.250 FPS (1536 SPF)

Compression mode : Lossy

Stream size : 349 MiB (1%)

Title : HDRezka Studio

Language : Russian

Service kind : Complete Main

Default : No

Forced : No



Audio #3

ID : 4

Format : AC-3

Format/Info : Audio Coding 3

Commercial name : Dolby Digital

Codec ID : A_AC3

Duration : 1 h 48 min

Bit rate mode : Constant

Bit rate : 192 kb/s

Channel(s) : 2 channels

Channel layout : L R

Sampling rate : 48.0 kHz

Frame rate : 31.250 FPS (1536 SPF)

Compression mode : Lossy

Stream size : 150 MiB (0%)

Title : iTunes

Language : Ukrainian

Service kind : Complete Main

Default : No

Forced : No



Audio #4

ID : 5

Format : MLP FBA 16-ch

Format/Info : Meridian Lossless Packing FBA with 16-channel presentation

Commercial name : Dolby TrueHD with Dolby Atmos

Codec ID : A_TRUEHD

Duration : 1 h 48 min

Bit rate mode : Variable

Bit rate : 3 686 kb/s

Maximum bit rate : 6 912 kb/s

Channel(s) : 8 channels

Channel layout : L R C LFE Ls Rs Lb Rb

Sampling rate : 48.0 kHz

Frame rate : 1 200.000 FPS (40 SPF)

Compression mode : Lossless

Stream size : 2.80 GiB (6%)

Title : Original

Language : English

Default : No

Forced : No

Number of dynamic objects : 15

Bed channel count : 1 channel

Bed channel configuration : LFE



Audio #5

ID : 6

Format : AC-3

Format/Info : Audio Coding 3

Commercial name : Dolby Digital

Codec ID : A_AC3

Duration : 1 h 48 min

Bit rate mode : Constant

Bit rate : 640 kb/s

Channel(s) : 6 channels

Channel layout : L R C LFE Ls Rs

Sampling rate : 48.0 kHz

Frame rate : 31.250 FPS (1536 SPF)

Compression mode : Lossy

Stream size : 499 MiB (1%)

Language : English

Service kind : Complete Main

Default : No

Forced : No



Text #1

ID : 7

Format : UTF-8

Codec ID : S_TEXT/UTF8

Codec ID/Info : UTF-8 Plain Text

Duration : 1 h 41 min

Bit rate : 3 b/s

Count of elements : 53

Stream size : 2.42 KiB (0%)

Title : Forced

Language : Russian

Default : Yes

Forced : Yes



Text #2

ID : 8

Format : UTF-8

Codec ID : S_TEXT/UTF8

Codec ID/Info : UTF-8 Plain Text

Duration : 1 h 48 min

Bit rate : 91 b/s

Count of elements : 1335

Stream size : 72.8 KiB (0%)

Title : Full

Language : Russian

Default : No

Forced : No



Text #3

ID : 9

Format : UTF-8

Codec ID : S_TEXT/UTF8

Codec ID/Info : UTF-8 Plain Text

Duration : 1 h 47 min

Bit rate : 3 b/s

Count of elements : 55

Stream size : 2.72 KiB (0%)

Title : Forced

Language : Ukrainian

Default : No

Forced : No



Text #4

ID : 10

Format : UTF-8

Codec ID : S_TEXT/UTF8

Codec ID/Info : UTF-8 Plain Text

Duration : 1 h 48 min

Bit rate : 53 b/s

Count of elements : 1586

Stream size : 42.5 KiB (0%)

Title : Full

Language : English

Default : No

Forced : No



Text #5

ID : 11

Format : UTF-8

Codec ID : S_TEXT/UTF8

Codec ID/Info : UTF-8 Plain Text

Duration : 1 h 48 min

Bit rate : 75 b/s

Count of elements : 2100

Stream size : 59.8 KiB (0%)

Title : SDH

Language : English

Default : No

Forced : No



Menu

00:00:00.000 : en:Chapter 1

00:08:08.446 : en:Chapter 2

00:17:53.739 : en:Chapter 3

00:27:11.839 : en:Chapter 4

00:35:40.805 : en:Chapter 5

00:44:48.352 : en:Chapter 6

00:53:43.387 : en:Chapter 7

01:01:15.547 : en:Chapter 8

01:10:55.960 : en:Chapter 9

01:19:06.492 : en:Chapter 10

01:24:28.146 : en:Chapter 11

01:34:27.996 : en:Chapter 12

01:41:26.998 : en:Chapter 13



Релиз от:



Discussion

Comments 0

Post Your Comment

Files in this torrent

FILENAMESIZE
Birds.of.Prey.and.the.Fantabulous.Emancipation.of.One.Harley.Quinn.2020.D.MVO.BDREMUX.2160p.HDR.seleZen.mkv49.7 GB

Alternative Torrents for 'Birds of Prey and Fantabulous Emancipation of One Harley Quinn MVO HDR'.

TORRENT NAMEADDEDSIZESEEDSPEERSHEALTH
5/6/202053 GB00
5/4/202049.7 GB00