Fantasy Island 2020 Unrated BDRip(AVC) OlLanDGroup

Torrent Details

Fantasy Island 2020 Unrated BDRip(AVC)<span style=color:#fc9c6d> OlLanDGroup</span>
Fantasy Island 2020 Unrated BDRip(AVC)<span style=color:#fc9c6d> OlLanDGroup</span>

NAME
Fantasy Island 2020 Unrated BDRip(AVC) OlLanDGroup.torrent
CATEGORY
Movies
INFOHASH
d34f114cd48dd642c3d9a41bad40bb769e9eceb4
SIZE
747 MB in 1 file
ADDED
Uploaded on 05-05-2020 by our crawler pet called "Spidey".
SWARM
0 seeders & 0 peers
RATING
No votes yet.

Please login to vote for this torrent.


Description

Информация о фильме

Название: Остров фантазий

Оригинальное название: Fantasy Island

Год выхода: 2020

Жанр: Ужасы, триллер, фантастика

Режиссер: Джефф Уодлоу

В ролях: Майкл Пенья, Мэгги Кью, Люси Хейл, Остин Стоуэлл, Портия Даблдэй, Джимми О. Ян, Райан Хансен, Майкл Рукер, Париса Фитц-Хенли, Майк Фогель



О фильме: Загадочный мистер Рорк воплощает в жизнь самые смелые и тайные мечты своих постояльцев на роскошном труднодоступном тропическом курорте. Но будут ли готовы гости разгадать тайну острова и спасти свои жизни, когда их фантазии обернутся кошмаром?







Страна: США

Студия: Blumhouse Productions, Columbia Pictures Corporation

Продолжительность: 01:49:24

Перевод: Дублированный | iTunes



Файл

Формат: MKV

Качество: BDRip-AVC

Источник: |Fantasy.Island.2020.Unrated.BDREMUX.1080p.seleZen|

Видео: 720x300 (2.40:1), 23.976 fps, x264 ~888 kbps avg, 0.171 bit/pixel

Звук: 48 kHz, HE-AAC, 2 ch, ~64 kbps avg

Субтитры: Русские (Forced, full), Английские



Релиз:



MediaInfo:Format : Matroska

Format version : Version 4

File size : 747 MiB

Duration : 1 h 49 min

Overall bit rate : 954 kb/s

Movie name : Остров фантазий / Fantasy Island (2020) BDRip(AVC) | Расширенная версия | OlLanDGroup#Skandar

Encoded date : UTC 2020-05-05 01:02:10

Writing application : mkvmerge v31.0.0 ('Dolores In A Shoestand') 64-bit

Writing library : libebml v1.3.6 + libmatroska v1.4.9



Video

ID : 1

Format : AVC

Format/Info : Advanced Video Codec

Format profile : [email protected]

Format settings : CABAC / 10 Ref Frames

Format settings, CABAC : Yes

Format settings, ReFrames : 10 frames

Codec ID : V_MPEG4/ISO/AVC

Duration : 1 h 49 min

Bit rate : 888 kb/s

Width : 720 pixels

Height : 300 pixels

Display aspect ratio : 2.40:1

Frame rate mode : Constant

Frame rate : 23.976 (24000/1001) FPS

Color space : YUV

Chroma subsampling : 4:2:0

Bit depth : 8 bits

Scan type : Progressive

Bits/(Pixel*Frame) : 0.171

Stream size : 695 MiB (93%)

Title : Остров фантазий / Fantasy Island (2020) BDRip(AVC) | Расширенная версия | OlLanDGroup#Skandar

Writing library : x264 core 146 r2538 121396c

Encoding settings : cabac=1 / ref=10 / deblock=1:-3:-3 / analyse=0x3:0x133 / me=umh / subme=11 / psy=1 / psy_rd=0.97:0.05 / mixed_ref=1 / me_range=48 / chroma_me=1 / trellis=2 / 8x8dct=1 / cqm=0 / deadzone=21,11 / fast_pskip=0 / chroma_qp_offset=-3 / threads=6 / lookahead_threads=1 / sliced_threads=0 / nr=0 / decimate=0 / interlaced=0 / bluray_compat=0 / constrained_intra=0 / bframes=11 / b_pyramid=2 / b_adapt=2 / b_bias=0 / direct=3 / weightb=1 / open_gop=0 / weightp=2 / keyint=240 / keyint_min=23 / scenecut=40 / intra_refresh=0 / rc_lookahead=40 / rc=2pass / mbtree=0 / bitrate=888 / ratetol=1.0 / qcomp=0.60 / qpmin=0 / qpmax=69 / qpstep=4 / cplxblur=20.0 / qblur=0.5 / vbv_maxrate=50000 / vbv_bufsize=62500 / nal_hrd=none / filler=0 / ip_ratio=1.40 / pb_ratio=1.30 / aq=1:1.00

Language : English

Default : Yes

Forced : No



Audio

ID : 2

Format : AAC LC SBR

Format/Info : Advanced Audio Codec Low Complexity with Spectral Band Replication

Commercial name : HE-AAC

Format settings : Explicit

Codec ID : A_AAC-2

Duration : 1 h 49 min

Bit rate : 64.0 kb/s

Channel(s) : 2 channels

Channel layout : L R

Sampling rate : 48.0 kHz

Frame rate : 23.438 FPS (2048 SPF)

Compression mode : Lossy

Delay relative to video : 31 ms

Stream size : 50.1 MiB (7%)

Title : DUB | iTunes

Language : Russian

Default : Yes

Forced : No



Text #1

ID : 3

Format : UTF-8

Codec ID : S_TEXT/UTF8

Codec ID/Info : UTF-8 Plain Text

Duration : 1 h 46 min

Bit rate : 0 b/s

Count of elements : 3

Stream size : 129 Bytes (0%)

Title : Forced

Language : Russian

Default : Yes

Forced : Yes



Text #2

ID : 4

Format : UTF-8

Codec ID : S_TEXT/UTF8

Codec ID/Info : UTF-8 Plain Text

Duration : 1 h 48 min

Bit rate : 96 b/s

Count of elements : 1409

Stream size : 76.3 KiB (0%)

Title : Full

Language : Russian

Default : No

Forced : No



Text #3

ID : 5

Format : UTF-8

Codec ID : S_TEXT/UTF8

Codec ID/Info : UTF-8 Plain Text

Duration : 1 h 46 min

Bit rate : 61 b/s

Count of elements : 1581

Stream size : 48.1 KiB (0%)

Title : Full

Language : English

Default : No

Forced : No



Text #4

ID : 6

Format : UTF-8

Codec ID : S_TEXT/UTF8

Codec ID/Info : UTF-8 Plain Text

Duration : 1 h 48 min

Bit rate : 67 b/s

Count of elements : 1930

Stream size : 53.5 KiB (0%)

Title : SDH

Language : English

Default : No

Forced : No



Menu

00:00:00.000 : :Chapter 1

00:08:47.110 : :Chapter 2

00:13:44.824 : :Chapter 3

00:18:47.501 : :Chapter 4

00:25:42.332 : :Chapter 5

00:32:38.706 : :Chapter 6

00:39:34.956 : :Chapter 7

00:45:24.722 : :Chapter 8

00:51:02.142 : :Chapter 9

00:55:38.335 : :Chapter 10

01:01:34.148 : :Chapter 11

01:09:40.092 : :Chapter 12

01:15:21.558 : :Chapter 13

01:23:03.019 : :Chapter 14

01:29:11.638 : :Chapter 15

01:40:03.831 : :Chapter 16 Скриншоты



Discussion

Comments 0

Post Your Comment

Files in this torrent

FILENAMESIZE
Fantasy.Island.2020.Unrated.BDRip(AVC).OlLanDGroup.mkv746.7 MB

Alternative Torrents for 'Fantasy Island Unrated AVC'.

TORRENT NAMEADDEDSIZESEEDSPEERSHEALTH
5/5/202038.8 GB00
5/5/202026.5 GB00
5/5/2020747 MB00