Fantasy Island (2020) ITA-ENG Ac3 5.1 BDRip 1080p H264 [ArMor]

Torrent Details

Fantasy Island (2020) ITA-ENG Ac3 5.1 BDRip 1080p H264 <span style=color:#fc9c6d>[ArMor]</span>
Fantasy Island (2020) ITA-ENG Ac3 5.1 BDRip 1080p H264 <span style=color:#fc9c6d>[ArMor]</span>

NAME
Fantasy Island (2020) ITA-ENG Ac3 5.1 BDRip 1080p H264 [ArMor].torrent
CATEGORY
Movies
INFOHASH
cde0be2a6863011fea061b2e18ffebfe936402a0
SIZE
3.3 GB in 3 files
ADDED
Uploaded on 05-05-2020 by our crawler pet called "Spidey".
SWARM
0 seeders & 0 peers
RATING
No votes yet.

Please login to vote for this torrent.


Description










General
Unique ID : 278919110771030767201573911114401920377 (0xD1D5DDE34CE7025A604F0A37AF773579)
Complete name : Fantasy Island (2020) ITA-ENG Ac3 5.1 BDRip 1080p H264 [ArMor].mkv
Format : Matroska
Format version : Version 4
File size : 3.29 GiB
Duration : 1 h 49 min
Overall bit rate : 4 304 kb/s
Movie name : CineBlog01HD
Encoded date : UTC 2020-05-04 21:29:26
Writing application : HandBrake 1.2.0 2018121700
Writing library : Lavf58.20.100
ErrorDetectionType : Per level 1

Video
ID : 1
Format : AVC
Format/Info : Advanced Video Codec
Format profile : [email protected]
Format settings : CABAC / 4 Ref Frames
Format settings, CABAC : Yes
Format settings, Reference frames : 4 frames
Codec ID : V_MPEG4/ISO/AVC
Duration : 1 h 49 min
Bit rate : 3 322 kb/s
Nominal bit rate : 3 500 kb/s
Width : 1 920 pixels
Height : 800 pixels
Display aspect ratio : 2.40:1
Frame rate mode : Constant
Frame rate : 23.976 (24000/1001) FPS
Color space : YUV
Chroma subsampling : 4:2:0
Bit depth : 8 bits
Scan type : Progressive
Bits/(Pixel*Frame) : 0.090
Stream size : 2.54 GiB (77%)
Writing library : x264 core 157 r2935 545de2f
Encoding settings : cabac=1 / ref=2 / deblock=1:0:0 / analyse=0x1:0x111 / me=hex / subme=6 / psy=1 / psy_rd=1.00:0.00 / mixed_ref=1 / me_range=16 / chroma_me=1 / trellis=1 / 8x8dct=0 / cqm=0 / deadzone=21,11 / fast_pskip=1 / chroma_qp_offset=-2 / threads=18 / lookahead_threads=3 / sliced_threads=0 / nr=0 / decimate=1 / interlaced=0 / bluray_compat=0 / constrained_intra=0 / bframes=3 / b_pyramid=2 / b_adapt=1 / b_bias=0 / direct=1 / weightb=1 / open_gop=0 / weightp=1 / keyint=240 / keyint_min=24 / scenecut=40 / intra_refresh=0 / rc_lookahead=30 / rc=abr / mbtree=1 / bitrate=3500 / ratetol=1.0 / qcomp=0.60 / qpmin=0 / qpmax=69 / qpstep=4 / vbv_maxrate=50000 / vbv_bufsize=62500 / nal_hrd=none / filler=0 / ip_ratio=1.40 / aq=1:1.00
Default : Yes
Forced : No
Color range : Limited
Color primaries : BT.709
Transfer characteristics : BT.709
Matrix coefficients : BT.709

Audio #1
ID : 2
Format : AC-3
Format/Info : Audio Coding 3
Commercial name : Dolby Digital
Codec ID : A_AC3
Duration : 1 h 49 min
Bit rate mode : Constant
Bit rate : 448 kb/s
Channel(s) : 6 channels
Channel layout : L R C LFE Ls Rs
Sampling rate : 48.0 kHz
Frame rate : 31.250 FPS (1536 SPF)
Compression mode : Lossy
Stream size : 351 MiB (10%)
Title : Surround
Language : Italian
Service kind : Complete Main
Default : Yes
Forced : No

Audio #2
ID : 3
Format : AC-3
Format/Info : Audio Coding 3
Commercial name : Dolby Digital
Codec ID : A_AC3
Duration : 1 h 49 min
Bit rate mode : Constant
Bit rate : 448 kb/s
Channel(s) : 6 channels
Channel layout : L R C LFE Ls Rs
Sampling rate : 48.0 kHz
Frame rate : 31.250 FPS (1536 SPF)
Compression mode : Lossy
Stream size : 351 MiB (10%)
Title : Surround
Language : English
Service kind : Complete Main
Default : No
Forced : No

Discussion

Comments 0

Post Your Comment

Files in this torrent

FILENAMESIZE
Fantasy Island (2020) ITA-ENG Ac3 5.1 BDRip 1080p H264 [ArMor].mkv3.3 GB
Fantasy.Island.2020.ITA-ENG.Bluray.1080p_ita.srt100.1 KB
MV5BOWE2.jpg133.3 KB

Alternative Torrents for 'Fantasy Island ENG'.

TORRENT NAMEADDEDSIZESEEDSPEERSHEALTH
5/22/20202.5 GB00
5/12/202011 GB00
5/9/20205.4 GB00
5/6/202010.6 GB00
5/5/20203.3 GB00
5/4/20202.7 GB00
5/4/20202.9 GB00
5/2/20202.4 GB00
4/18/20203.9 GB00
4/15/20201.9 GB00