Birds Of Prey And The Fantabulous Emancipation Of One Harley Quinn 2020 IT BDRip 1.41GB X264

Torrent Details

Birds of Prey and the Fantabulous Emancipation of One Harley Quinn 2020 iT BDRip 1.41GB x264
Birds of Prey and the Fantabulous Emancipation of One Harley Quinn 2020 iT BDRip 1.41GB x264

NAME
Birds of Prey and the Fantabulous Emancipation of One Harley Quinn 2020 iT BDRip 1.41GB x264.torrent
CATEGORY
Movies
INFOHASH
c02803a8d0d30b80ef65b1a232be3cd797e12423
SIZE
1.4 GB in 1 file
ADDED
Uploaded on 05-05-2020 by our crawler pet called "Spidey".
SWARM
0 seeders & 0 peers
RATING
No votes yet.

Please login to vote for this torrent.


Description

«Mind Over Mayhem»



Информация о фильме

Название: Хищные птицы: Потрясающая история Харли Квинн

Оригинальное название: Birds of Prey: And the Fantabulous Emancipation of One Harley Quinn

Год выхода: 2020

Жанр: Боевик, криминал, комедия

Режиссер: Кэти Янь

В ролях: Марго Робби, Джерни Смоллетт, Мэри Элизабет Уинстэд, Рози Перес, Элла Джей Баско, Юэн Макгрегор, Крис Мессина, Бояна Новакович, Али Вонг, Дэвид Ури



О фильме:

Харли Квинн рассталась с Джокером и через некоторое время сообщила об этом всему Готэму, взорвав тот самый химзавод. Девушка больше не тоскует по несостоявшимся отношениям — ей некогда, так как она также потеряла неприкосновенность, и теперь за ней охотятся разной степени криминализованности граждане, желающие отомстить. А в это время ставший крёстным отцом Готема Роман Сайонис очень жаждет вернуть пропавший бриллиант, который стащила у его подручного малолетняя карманница.







Страна: США

Студия: Clubhouse Pictures (II), DC Entertainment, Kroll & Co. Entertainment, LuckyChap Entertainment

Продолжительность: 01:48:54

Перевод:

• Профессиональный (полное дублирование) | iTunes



Файл

Качество: BDRip-AVC

Исходник: Birds.of.Prey.and.the.Fantabulous.Emancipation.of.One.Harley.Quinn.2020.D.MVO.BDREMUX.1080p.seleZen.mkv

Формат: MKV

Кодек: MPEG-4 AVC

Видео: 864x362 (2.40:1), 23.976 fps, MPEG-4 AVC ~ 1468 Кbps avg, 0.196 bit/pixel

Аудио: AC3, 48 kHz, 6 ch, ~384.00 kbps avg | русский | iTunes

Субтитры: Русские (Forced, Full), украинские (Forced)





Инфо-файлОбщее

Уникальный идентификатор : 288511013243289088895061520145573095708 (0xD90D33312C5E8C5BAD23DC480E06291C)

Полное имя : Birds.of.Prey.and.the.Fantabulous.Emancipation.of.One.Harley.Quinn.2020.iT.BDRip.1.41Gb.x264.mkv

Формат : Matroska

Версия формата : Version 4

Размер файла : 1,41 Гбайт

Продолжительность : 1 ч. 48 м.

Общий поток : 1853 Кбит/сек

Название фильма : Хищные птицы: Потрясающая история Харли Квинн / Birds of Prey: And the Fantabulous Emancipation of One Harley Quinn (2020

Дата кодирования : UTC 2020-05-05 15:30:33

Программа кодирования : mkvmerge v46.0.0 ('No Deeper Escape') 64-bit

Библиотека кодирования : libebml v1.3.10 + libmatroska v1.5.2

Обложка : Yes

Attachments : cover.jpg



Видео

Идентификатор : 1

Формат : AVC

Формат/Информация : Advanced Video Codec

Профиль формата : [email protected]

Настройки формата : CABAC / 12 Ref Frames

Параметр CABAC формата : Да

Параметр RefFrames формата : 12 кадров

Идентификатор кодека : V_MPEG4/ISO/AVC

Продолжительность : 1 ч. 48 м.

Битрейт : 1468 Кбит/сек

Ширина : 864 пикселя

Высота : 362 пикселя

Соотношение сторон : 2,40:1

Режим частоты кадров : Постоянный

Частота кадров : 23,976 кадра/сек

Цветовое пространство : YUV

Субдискретизация насыщенности : 4:2:0

Битовая глубина : 8 бит

Тип развёртки : Прогрессивная

Бит/(Пиксели*Кадры) : 0.196

Размер потока : 1,12 Гбайт (79%)

Заголовок : #stillet

Библиотека кодирования : x264 core 152 r2851bm ba24899

Настройки программы : cabac=1 / ref=12 / deblock=1:-3:-3 / analyse=0x3:0x113 / me=umh / subme=11 / psy=1 / psy_rd=1.00:0.15 / mixed_ref=1 / me_range=32 / chroma_me=1 / trellis=2 / 8x8dct=1 / cqm=0 / deadzone=21,11 / fast_pskip=0 / chroma_qp_offset=-3 / threads=8 / lookahead_threads=3 / sliced_threads=0 / nr=0 / decimate=0 / interlaced=0 / bluray_compat=0 / constrained_intra=0 / bframes=12 / b_pyramid=2 / b_adapt=2 / b_bias=0 / direct=3 / weightb=1 / open_gop=0 / weightp=2 / keyint=240 / keyint_min=23 / scenecut=40 / intra_refresh=0 / rc=2pass / mbtree=0 / bitrate=1468 / ratetol=1.0 / qcomp=0.60 / qpmin=0 / qpmax=69 / qpstep=4 / cplxblur=20.0 / qblur=0.5 / ip_ratio=1.40 / pb_ratio=1.30 / aq=1:1.00

Язык : English

Default : Да

Forced : Нет



Аудио

Идентификатор : 2

Формат : AC-3

Формат/Информация : Audio Coding 3

Коммерческое название : Dolby Digital

Идентификатор кодека : A_AC3

Продолжительность : 1 ч. 48 м.

Вид битрейта : Постоянный

Битрейт : 384 Кбит/сек

Каналы : 6 каналов

ChannelLayout : L R C LFE Ls Rs

Частота : 48,0 КГц

Частота кадров : 31,250 кадров/сек (1536 SPF)

Метод сжатия : С потерями

Размер потока : 299 Мбайт (21%)

Заголовок : iTunes

Язык : Russian

Default : Да

Forced : Да



Текст #1

Идентификатор : 3

Формат : UTF-8

Идентификатор кодека : S_TEXT/UTF8

Идентификатор кодека/Информация : UTF-8 Plain Text

Продолжительность : 1 ч. 41 м.

Битрейт : 3 бит/сек

ElementCount : 53

Размер потока : 2,42 Кбайт (0%)

Заголовок : Forced

Язык : Russian

Default : Да

Forced : Да



Текст #2

Идентификатор : 4

Формат : UTF-8

Идентификатор кодека : S_TEXT/UTF8

Идентификатор кодека/Информация : UTF-8 Plain Text

Продолжительность : 1 ч. 48 м.

Битрейт : 91 бит/сек

ElementCount : 1335

Размер потока : 72,8 Кбайт (0%)

Заголовок : Full

Язык : Russian

Default : Нет

Forced : Нет



Текст #3

Идентификатор : 5

Формат : UTF-8

Идентификатор кодека : S_TEXT/UTF8

Идентификатор кодека/Информация : UTF-8 Plain Text

Продолжительность : 1 ч. 47 м.

Битрейт : 3 бит/сек

ElementCount : 55

Размер потока : 2,72 Кбайт (0%)

Заголовок : Forced

Язык : Ukrainian

Default : Нет

Forced : Нет



Меню

00:00:00.000 : en:Chapter 01

00:08:08.446 : en:Chapter 02

00:17:53.739 : en:Chapter 03

00:27:11.839 : en:Chapter 04

00:35:40.805 : en:Chapter 05

00:44:48.352 : en:Chapter 06

00:53:43.387 : en:Chapter 07

01:01:15.547 : en:Chapter 08

01:10:55.960 : en:Chapter 09

01:19:06.492 : en:Chapter 10

01:24:28.146 : en:Chapter 11

01:34:27.996 : en:Chapter 12

01:41:26.998 : en:Chapter 13



Скриншоты

Discussion

Comments 0

Post Your Comment

Files in this torrent

FILENAMESIZE
Birds.of.Prey.and.the.Fantabulous.Emancipation.of.One.Harley.Quinn.2020.iT.BDRip.1.41Gb.x264.mkv1.4 GB

Alternative Torrents for 'Birds of Prey and Fantabulous Emancipation of One Harley Quinn iT'.

TORRENT NAMEADDEDSIZESEEDSPEERSHEALTH
5/28/20201.4 GB00
5/5/20201.4 GB00
5/5/20202.8 GB00