Birds Of Prey And The Fantabulous Emancipation Of One Harley Quinn 2020 D MVO BDREMUX 2160p DV_TV SeleZen

Torrent Details

Birds of Prey and the Fantabulous Emancipation of One Harley Quinn 2020 D MVO BDREMUX 2160p DV_TV<span style=color:#fc9c6d> seleZen</span>
Birds of Prey and the Fantabulous Emancipation of One Harley Quinn 2020 D MVO BDREMUX 2160p DV_TV<span style=color:#fc9c6d> seleZen</span>

NAME
Birds of Prey and the Fantabulous Emancipation of One Harley Quinn 2020 D MVO BDREMUX 2160p DV_TV seleZen.torrent
CATEGORY
Movies
INFOHASH
fa47d14cc256290df45d50356345ce0baeb4402c
SIZE
45.9 GB in 2 files
ADDED
Uploaded on 06-05-2020 by our crawler pet called "Spidey".
SWARM
0 seeders & 0 peers
RATING
No votes yet.

Please login to vote for this torrent.


Description

Информация о фильме

Название: Хищные птицы: Потрясающая история Харли Квинн

Оригинальное название: Birds of Prey: And the Fantabulous Emancipation of One Harley Quinn

Год выхода: 2020

Жанр: Боевик, криминал, комедия

Режиссер: Кэти Янь

В ролях: Марго Робби, Джерни Смоллетт, Мэри Элизабет Уинстэд, Рози Перес, Элла Джей Баско, Юэн Макгрегор, Крис Мессина, Бояна Новакович, Али Вонг, Дэвид Ури







О фильме: Харли Квинн рассталась с Джокером и через некоторое время сообщила об этом всему Готэму, взорвав тот самый химзавод. Девушка больше не тоскует по несостоявшимся отношениям — ей некогда, так как она также потеряла неприкосновенность, и теперь за ней охотятся разной степени криминализованности граждане, которым она когда-либо наносила вред. А в это время ставший крёстным отцом Готема Роман Сайонис очень жаждет вернуть пропавший бриллиант, который стащила у его подручного малолетняя карманница.



Страна: США

Студия: Clubhouse Pictures (II), DC Entertainment, Kroll & Co. Entertainment

Продолжительность: 01:48:54

Перевод: Дублированный | iTunes



Качество: BDRemux 2160p

Видео: 3840x2160 at 23.976 fps, MPEG-H HEVC HDR, Dolby Vision Video, 59900 kbps avg

Аудио: 48 kHz, AC3, 5.1, 384 Kbps | iTunes | RUS |

Субтитры: Русские (Forced, отдельно)







MIGeneral

Complete name : D:Video222Birds.of.Prey.and.the.Fantabulous.Emancipation.of.One.Harley.Quinn.2020.D.MVO.BDREMUX.2160p.DV_TV.seleZenBirds.of.Prey.and.the.Fantabulous.Emancipation.of.One.Harley.Quinn.2020.D.MVO.BDREMUX.2160p.DV_TV.seleZen.mp4

Format : MPEG-4

Format profile : Base Media / Version 2

Codec ID : mp42 (mp42/dby1/isom)

File size : 45.9 GiB

Duration : 1 h 48 min

Overall bit rate : 60.3 Mb/s

Encoded date : UTC 2020-05-06 00:16:16

Tagged date : UTC 2020-05-06 00:16:16



Video #1

ID : 1

Format : HEVC

Format/Info : High Efficiency Video Coding

Format profile : Main [email protected]@High

HDR format : SMPTE ST 2094 App 4, Version 1, HDR10+ Profile B compatible

Codec ID : hev1

Codec ID/Info : High Efficiency Video Coding

Duration : 1 h 48 min

Bit rate : 59.9 Mb/s

Width : 3 840 pixels

Height : 2 160 pixels

Display aspect ratio : 16:9

Frame rate mode : Constant

Frame rate : 23.976 (24000/1001) FPS

Color space : YUV

Chroma subsampling : 4:2:0 (Type 2)

Bit depth : 10 bits

Bits/(Pixel*Frame) : 0.301

Stream size : 45.5 GiB (99%)

Default : No

Encoded date : UTC 2020-05-06 00:16:16

Tagged date : UTC 2020-05-06 00:16:16

Color range : Limited

Color primaries : BT.2020

Transfer characteristics : PQ

Matrix coefficients : BT.2020 non-constant

Mastering display color pri : BT.2020

Mastering display luminance : min: 0.0050 cd/m2, max: 4000 cd/m2

Maximum Content Light Level : 683 cd/m2

Maximum Frame-Average Light : 136 cd/m2

Codec configuration box : hvcC



Video #2

ID : 2

Format : HEVC

Format/Info : High Efficiency Video Coding

Format profile : Main [email protected]@High

HDR format : Dolby Vision, Version 1.0, dvhe.07.06, EL+RPU, Blu-ray compatible / SMPTE ST 2086, HDR10 compatible

Codec ID : dvhe

Codec ID/Info : High Efficiency Video Coding with Dolby Vision

Duration : 1 h 48 min

Bit rate : 64.6 kb/s

Width : 1 920 pixels

Height : 1 080 pixels

Display aspect ratio : 16:9

Frame rate mode : Constant

Frame rate : 23.976 (24000/1001) FPS

Color space : YUV

Chroma subsampling : 4:2:0 (Type 2)

Bit depth : 10 bits

Bits/(Pixel*Frame) : 0.001

Stream size : 50.4 MiB (0%)

Default : No

Encoded date : UTC 2020-05-06 00:16:16

Tagged date : UTC 2020-05-06 00:16:16

Color range : Limited

Color primaries : BT.2020

Transfer characteristics : PQ

Matrix coefficients : BT.2020 non-constant

Mastering display color pri : BT.2020

Mastering display luminance : min: 0.0050 cd/m2, max: 4000 cd/m2

Codec configuration box : hvcC+dvcC



Audio

ID : 3

Format : AC-3

Format/Info : Audio Coding 3

Commercial name : Dolby Digital

Codec ID : ac-3

Duration : 1 h 48 min

Bit rate mode : Constant

Bit rate : 384 kb/s

Channel(s) : 6 channels

Channel layout : L R C LFE Ls Rs

Sampling rate : 48.0 kHz

Frame rate : 31.250 FPS (1536 SPF)

Compression mode : Lossy

Stream size : 299 MiB (1%)

Language : Russian

Service kind : Complete Main

Default : No

Encoded date : UTC 2020-05-06 00:16:16

Tagged date : UTC 2020-05-06 00:16:16



Релиз от:



Discussion

Comments 0

Post Your Comment

Files in this torrent

FILENAMESIZE
Birds.of.Prey.and.the.Fantabulous.Emancipation.of.One.Harley.Quinn.2020.D.MVO.BDREMUX.2160p.DV_TV.seleZen.mp445.9 GB
Birds.of.Prey.and.the.Fantabulous.Emancipation.of.One.Harley.Quinn.2020.D.MVO.BDREMUX.2160p.DV_TV.seleZen.srt4.4 KB

Alternative Torrents for 'Birds of Prey and Fantabulous Emancipation of One Harley Quinn MVO DVTV'.

TORRENT NAMEADDEDSIZESEEDSPEERSHEALTH
6/26/20206.9 GB1494296
6/18/2020836 MB1460117
6/24/20201.3 GB130146
6/18/20201.7 GB1234103
6/18/2020797 MB1155220
6/28/20201.4 GB1113241
6/26/20201.1 GB1048610
6/24/2020704 MB97339
6/28/2020702 MB878195
6/18/20201.7 GB872211
6/18/20208.3 GB871120
6/17/20201.7 GB871135
6/29/2020992 MB759371
6/26/20202.3 GB744512
6/17/20201.4 GB73422