(18+) - Hunger (2020) Hindi 720p HotShots Originals WEBRip X264 AAC 150MB - MovCr

Torrent Details


(18+)  - Hunger (2020) Hindi 720p HotShots Originals WEBRip x264 AAC 150MB <span style=color:#fc9c6d>- MovCr</span>

NAME
(18+) - Hunger (2020) Hindi 720p HotShots Originals WEBRip x264 AAC 150MB - MovCr.torrent
CATEGORY
Movies
INFOHASH
a65e6ce4bf198835e5824970005768d275bd652e
SIZE
143 MB in 1 file
ADDED
Uploaded on 06-05-2020 by our crawler pet called "Spidey".
SWARM
0 seeders & 0 peers
RATING
No votes yet.

Please login to vote for this torrent.


Description

https://MovCr.to



Hunger (2020) Hindi 720p HotShots Originals WEBRip x264 AAC 150MB - MovCr











Plot:

A lonely housewife Stuck in a sexless marriage, discovers that her marriage lacks passion and surprise, and is seduced by the possibility of finding those sensations already forgotten in a young man who is her tailor. She desperately wants to sexually be satisfied by her husband, but he's losing interest. Tired from trying, she falls for her tailor, unable to resist she ends up sharing a passionate relationship with him. Director: Abhijeet Harishchandra











Video

ID                                       : 1

Format                                   : AVC

Format/Info                              : Advanced Video Codec

Format profile                           : [email protected]

Format settings                          : 2 Ref Frames

Format settings, CABAC                   : No

Format settings, Reference frames        : 2 frames

Codec ID                                 : V_MPEG4/ISO/AVC

Duration                                 : 21 min 25 s

Bit rate                                 : 900 kb/s

Width                                    : 1 280 pixels

Height                                   : 532 pixels

Display aspect ratio                     : 2.40:1

Frame rate mode                          : Constant

Frame rate                               : 23.976 (23976/1000) FPS

Color space                              : YUV

Chroma subsampling                       : 4:2:0

Bit depth                                : 8 bits

Scan type                                : Progressive

Bits/(Pixel*Frame)                       : 0.055

Stream size                              : 134 MiB (94%)

Title                                    : MovCr



Audio

ID                                       : 2

Format                                   : AAC LC

Format/Info                              : Advanced Audio Codec Low Complexity

Codec ID                                 : A_AAC-2

Duration                                 : 21 min 25 s

Bit rate                                 : 56.0 kb/s

Channel(s)                               : 2 channels

Channel layout                           : L R

Sampling rate                            : 32.0 kHz

Frame rate                               : 31.250 FPS (1024 SPF)

Compression mode                         : Lossy

Delay relative to video                  : -32 ms

Stream size                              : 8.58 MiB (6%)

Title                                    : MovCr

Default                                  : Yes

Forced                                   : No

























Discussion

Comments 0

Post Your Comment

Files in this torrent

FILENAMESIZE
(18+) www.MovCr.to - Hunger (2020) Hindi 720p HotShots Originals WEBRip x264 AAC 150MB - MovCr.mkv143.3 MB

Alternative Torrents for 'Hunger Hindi HotShots Originals AAC MB'.

TORRENT NAMEADDEDSIZESEEDSPEERSHEALTH
10/10/20204.1 GB1127987
Yesterday242 MB778318
10/9/20202.9 GB671223
10/19/2020366 MB560168
10/8/20202.7 GB457126
Yesterday358 MB410237
10/16/2020236 MB40227
Yesterday42 MB400115
10/20/2020255 MB389166
10/8/20201.3 GB34756
10/18/2020226 MB3128
Today390 MB304202
10/17/2020279 MB3040
10/20/2020184 MB30399
10/9/2020766 MB292126