Fantasy Island 2020 UNRATED BRRip XviD B4ND1T69

Torrent Details

Fantasy Island 2020 UNRATED BRRip XviD<span style=color:#fc9c6d> B4ND1T69</span>
Fantasy Island 2020 UNRATED BRRip XviD<span style=color:#fc9c6d> B4ND1T69</span>

NAME
Fantasy Island 2020 UNRATED BRRip XviD B4ND1T69.torrent
CATEGORY
Movies
INFOHASH
2110fa75d1d242c1eb34d72c48319046685df148
SIZE
1.3 GB in 4 files
ADDED
Uploaded on 06-05-2020 by our crawler pet called "Spidey".
SWARM
0 seeders & 0 peers
RATING
No votes yet.

Please login to vote for this torrent.


Description

Fantasy.Island.2020.UNRATED.BRRip.XviD.B4ND1T69







Director: Jeff Wadlow

Writers: Jillian Jacobs, Christopher Roach

Stars: Michael Peña, Maggie Q, Lucy Hale



Plot/Story:

The enigmatic Mr. Roarke makes the secret dreams of his lucky guests come true at a luxurious but remote tropical resort. But when the fantasies turn into nightmares, the guests have to solve the island's mystery in order to escape with their lives.



General

Complete name               : Fantasy.Island.2020.UNRATED.BRRip.XviD.B4ND1T69.avi

Format                      : AVI

Format/Info                 : Audio Video Interleave

File size                   : 1.33 GiB

Duration                    : 1 h 49 min

Overall bit rate            : 1 741 kb/s

Subtitles                   : Yes...Included(HI)



Video

ID                          : 0

Format                      : MPEG-4 Visual

Format profile              : Advanced [email protected]

Format settings, BVOP       : 2

Format settings, QPel       : No

Format settings, GMC        : No warppoints

Format settings, Matrix     : Default (H.263)

Codec ID                    : XVID

Codec ID/Hint               : XviD

Duration                    : 1 h 49 min

Bit rate                    : 1 600 kb/s

Width                       : 720 pixels

Height                      : 304 pixels

Display aspect ratio        : 2.35:1

Frame rate                  : 23.976 (24000/1001) FPS

Color space                 : YUV

Chroma subsampling          : 4:2:0

Bit depth                   : 8 bits

Scan type                   : Progressive

Compression mode            : Lossy

Bits/(Pixel*Frame)          : 0.305

Stream size                 : 1.22 GiB (92%)

Writing library             : XviD 64



Audio

ID                          : 1

Format                      : MPEG Audio

Format version              : Version 1

Format profile              : Layer 3

Codec ID                    : 55

Codec ID/Hint               : MP3

Duration                    : 1 h 49 min

Bit rate mode               : Constant

Bit rate                    : 128 kb/s

Channel(s)                  : 2 channels

Sampling rate               : 48.0 kHz

Compression mode            : Lossy

Stream size                 : 100 MiB (7%)

Alignment                   : Aligned on interleaves

Interleave, duration        : 24  ms (0.58 video frame)



Screenshots:



















Please Seed For As Long As Possible

Or At Least 1:1 Ratio...Thanks

Enjoy Peeps

Discussion

Comments 0

Post Your Comment

Files in this torrent

FILENAMESIZE
1337x text file.txt61 B
Downloaded from katcr.co.txt139 B
Fantasy.Island.2020.UNRATED.BRRip.XviD.B4ND1T69.avi1.3 GB
Fantasy.Island.2020.UNRATED.BRRip.XviD.B4ND1T69.srt127.1 KB

Alternative Torrents for 'Fantasy Island UNRATED'.

TORRENT NAMEADDEDSIZESEEDSPEERSHEALTH
6/13/20204 GB00
6/13/202010.4 GB00
6/11/20201.5 GB00
6/10/2020750 MB00
6/9/20201.5 GB00
5/28/20202.2 GB00
5/12/20202.3 GB00
5/12/20202 GB00
5/12/20209.9 GB00
5/9/20201.7 GB00
5/6/20201.8 GB00
5/6/2020949 MB00
5/6/20201.3 GB00
5/6/20205.3 GB00
5/5/202016 GB00