Birds Of Prey And The Fantabulous Emancipation Of One Harley Quinn 2020 BRRip XviD B4ND1T69

Torrent Details

Birds of Prey And the Fantabulous Emancipation of One Harley Quinn 2020 BRRip XviD<span style=color:#fc9c6d> B4ND1T69</span>
Birds of Prey And the Fantabulous Emancipation of One Harley Quinn 2020 BRRip XviD<span style=color:#fc9c6d> B4ND1T69</span>

NAME
Birds of Prey And the Fantabulous Emancipation of One Harley Quinn 2020 BRRip XviD B4ND1T69.torrent
CATEGORY
Movies
INFOHASH
2c1b958d5e8060a82009e38e4aff77aea7ce7ab9
SIZE
1.3 GB in 4 files
ADDED
Uploaded on 06-05-2020 by our crawler pet called "Spidey".
SWARM
0 seeders & 0 peers
RATING
No votes yet.

Please login to vote for this torrent.


Description

Birds.of.Prey.And.the.Fantabulous.Emancipation.of.One.Harley.Quinn.2020.BRRip.XviD.B4ND1T69



Director: Cathy Yan
Writers: Christina Hodson, Paul Dini (Harley Quinn created by)
Stars: Margot Robbie, Rosie Perez, Mary Elizabeth Winstead

Plot/Story:
After splitting with the Joker, Harley Quinn joins superheroes Black Canary, Huntress and Renee Montoya to save a young girl from an evil crime lord.

General
Complete name : Birds.of.Prey.And.the.Fantabulous.Emancipation.of.One.Harley.Quinn.2020.BRRip.XviD.B4ND1T69.avi
Format : AVI
Format/Info : Audio Video Interleave
File size : 1.32 GiB
Duration : 1 h 48 min
Overall bit rate : 1 741 kb/s
Subtitles : Yes...Included(HI)

Video
ID : 0
Format : MPEG-4 Visual
Format profile : Advanced [email protected]
Format settings, BVOP : 2
Format settings, QPel : No
Format settings, GMC : No warppoints
Format settings, Matrix : Default (H.263)
Codec ID : XVID
Codec ID/Hint : XviD
Duration : 1 h 48 min
Bit rate : 1 600 kb/s
Width : 720 pixels
Height : 304 pixels
Display aspect ratio : 2.35:1
Frame rate : 23.976 (24000/1001) FPS
Color space : YUV
Chroma subsampling : 4:2:0
Bit depth : 8 bits
Scan type : Progressive
Compression mode : Lossy
Bits/(Pixel*Frame) : 0.305
Stream size : 1.22 GiB (92%)
Writing library : XviD 64

Audio
ID : 1
Format : MPEG Audio
Format version : Version 1
Format profile : Layer 3
Codec ID : 55
Codec ID/Hint : MP3
Duration : 1 h 48 min
Bit rate mode : Constant
Bit rate : 128 kb/s
Channel(s) : 2 channels
Sampling rate : 48.0 kHz
Compression mode : Lossy
Stream size : 99.7 MiB (7%)
Alignment : Aligned on interleaves
Interleave, duration : 24 ms (0.58 video frame)

Screenshots:









Please Seed For As Long As Possible
Or At Least 1:1 Ratio...Thanks
Enjoy Peeps

Discussion

Comments 0

Post Your Comment

Files in this torrent

FILENAMESIZE
1337x text file.txt61 B
Birds.of.Prey.And.the.Fantabulous.Emancipation.of.One.Harley.Quinn.2020.BRRip.XviD.B4ND1T69.avi1.3 GB
Birds.of.Prey.And.the.Fantabulous.Emancipation.of.One.Harley.Quinn.2020.BRRip.XviD.B4ND1T69.srt135.1 KB
Downloaded from katcr.co.txt139 B

Alternative Torrents for 'Birds of Prey And Fantabulous Emancipation of One Harley Quinn'.

TORRENT NAMEADDEDSIZESEEDSPEERSHEALTH
6/1/20204.8 GB00
6/1/20202.4 GB00
6/1/20201.1 GB00
5/31/20206 GB00
5/28/20201.4 GB00
5/28/20204.4 GB00
5/28/20202.2 GB00
5/28/20201.4 GB00
5/24/2020146 MB00
5/20/20202 GB00
5/19/20204.4 GB00
5/18/20201.6 GB00
5/15/20204.3 GB00
5/14/20205.1 GB00
5/13/202010.7 GB00