Bad Boys For Life (2020) 720p BRRip X264 Dual Aud AAC ( Hin + Eng ) Eng Sub

Torrent Details

Bad Boys for Life (2020) 720p BRRip x264 Dual Aud  AAC ( Hin + Eng ) Eng Sub
Bad Boys for Life (2020) 720p BRRip x264 Dual Aud  AAC ( Hin + Eng ) Eng Sub

NAME
Bad Boys for Life (2020) 720p BRRip x264 Dual Aud AAC ( Hin + Eng ) Eng Sub.torrent
CATEGORY
Movies
INFOHASH
f35b5e20fcbb1961be5ed4b476ecc1d3088ed9e3
SIZE
1.3 GB in 1 file
ADDED
Uploaded on 06-05-2020 by our crawler pet called "Spidey".
SWARM
0 seeders & 0 peers
RATING
No votes yet.

Please login to vote for this torrent.


Description

Bad Boys for Life (2020)
R | 2h 4min | Action, Comedy, Crime | 17 January 2020 (USA)

Miami detectives Mike Lowrey and Marcus Burnett must face off against a mother-and-son pair of drug lords
who wreak vengeful havoc on their city.

Directors: Adil El Arbi (as Adil), Bilall Fallah (as Bilall)
Writers: Peter Craig (story), Joe Carnahan (story) |
Stars: Will Smith, Martin Lawrence, Vanessa Hudgens

Format : Matroska
Format version : Version 4
File size : 1.28 GiB
Duration : 2 h 3 min
Overall bit rate : 1 477 kb/s

Video
ID : 1
Format : AVC
Format/Info : Advanced Video Codec
Format profile : [email protected]
Format settings : CABAC / 8 Ref Frames
Format settings, CABAC : Yes
Format settings, Reference : 8 frames
Codec ID : V_MPEG4/ISO/AVC
Duration : 2 h 3 min
Bit rate : 1 287 kb/s
Width : 1 280 pixels
Height : 536 pixels
Display aspect ratio : 2.40:1
Frame rate mode : Constant
Frame rate : 23.976 (24000/1001) FPS
Color space : YUV
Chroma subsampling : 4:2:0
Bit depth : 8 bits
Scan type : Progressive
Bits/(Pixel*Frame) : 0.078
Stream size : 1.11 GiB (87%)
Writing library : x264 core

Audio #1
ID : 2
Format : AAC LC
Format/Info : Advanced Audio Codec Low Complexity
Codec ID : A_AAC-2
Duration : 2 h 3 min
Bit rate : 93.6 kb/s
Channel(s) : 2 channels
Channel layout : L R
Sampling rate : 44.1 kHz
Frame rate : 43.066 FPS (1024 SPF)
Compression mode : Lossy
Stream size : 83.0 MiB (6%)
Language : Hindi
Default : Yes
Forced : Yes

Audio #2
ID : 3
Format : AAC LC
Format/Info : Advanced Audio Codec Low Complexity
Codec ID : A_AAC-2
Duration : 2 h 3 min
Bit rate : 93.6 kb/s
Channel(s) : 2 channels
Channel layout : L R
Sampling rate : 44.1 kHz
Frame rate : 43.066 FPS (1024 SPF)
Compression mode : Lossy
Stream size : 83.0 MiB (6%)
Language : English
Default : No
Forced : No

Text
ID : 4
Format : UTF-8
Codec ID : S_TEXT/UTF8
Codec ID/Info : UTF-8 Plain Text
Duration : 1 h 20 min
Bit rate : 97 b/s
Count of elements : 1591
Stream size : 57.8 KiB (0%)
Language : English
Default : Yes
Forced : No

Discussion

Comments 0

Post Your Comment

Files in this torrent

FILENAMESIZE
Bad Boys for Life (2020) 720p BRRip x264 Dual Aud AAC ( Hin + Eng ) Eng Sub.mkv1.3 GB

Alternative Torrents for 'Bad Boys for Life Dual Aud AAC Hin Eng Eng Sub'.

TORRENT NAMEADDEDSIZESEEDSPEERSHEALTH
5/6/20201.3 GB00