1917 (2020) ITA-ENG Ac3 5.1 BDRip 1080p H264 [ArMor]

Torrent Details


1917 (2020) ITA-ENG Ac3 5.1 BDRip 1080p H264 <span style=color:#fc9c6d>[ArMor]</span>

NAME
1917 (2020) ITA-ENG Ac3 5.1 BDRip 1080p H264 [ArMor].torrent
CATEGORY
Movies
INFOHASH
e940ce81e89b847c4306007750767a1b4dee8b85
SIZE
3.6 GB in 4 files
ADDED
Uploaded on 07-05-2020 by our crawler pet called "Spidey".
SWARM
0 seeders & 0 peers
RATING
No votes yet.

Please login to vote for this torrent.


Description










General
Unique ID : 98135529225991588982353913606815717490 (0x49D43726B68345BE1076DB0AB7859872)
Complete name : 1917 (2019) ITA-ENG Ac3 5.1 BDRip 1080p H264 [ArMor].mkv
Format : Matroska
Format version : Version 4
File size : 3.61 GiB
Duration : 1 h 59 min
Overall bit rate : 4 330 kb/s
Movie name : CineBlog01HD
Encoded date : UTC 2020-05-07 04:58:20
Writing application : HandBrake 1.2.0 2018121700
Writing library : Lavf58.20.100
ErrorDetectionType : Per level 1

Video
ID : 1
Format : AVC
Format/Info : Advanced Video Codec
Format profile : [email protected]
Format settings : CABAC / 4 Ref Frames
Format settings, CABAC : Yes
Format settings, Reference frames : 4 frames
Codec ID : V_MPEG4/ISO/AVC
Duration : 1 h 58 min
Bit rate : 3 500 kb/s
Width : 1 920 pixels
Height : 800 pixels
Display aspect ratio : 2.40:1
Frame rate mode : Constant
Frame rate : 23.976 (24000/1001) FPS
Color space : YUV
Chroma subsampling : 4:2:0
Bit depth : 8 bits
Scan type : Progressive
Bits/(Pixel*Frame) : 0.095
Stream size : 2.78 GiB (77%)
Writing library : x264 core 157 r2935 545de2f
Encoding settings : cabac=1 / ref=2 / deblock=1:0:0 / analyse=0x1:0x111 / me=hex / subme=6 / psy=1 / psy_rd=1.00:0.00 / mixed_ref=1 / me_range=16 / chroma_me=1 / trellis=1 / 8x8dct=0 / cqm=0 / deadzone=21,11 / fast_pskip=1 / chroma_qp_offset=-2 / threads=18 / lookahead_threads=3 / sliced_threads=0 / nr=0 / decimate=1 / interlaced=0 / bluray_compat=0 / constrained_intra=0 / bframes=3 / b_pyramid=2 / b_adapt=1 / b_bias=0 / direct=1 / weightb=1 / open_gop=0 / weightp=1 / keyint=240 / keyint_min=24 / scenecut=40 / intra_refresh=0 / rc_lookahead=30 / rc=abr / mbtree=1 / bitrate=3500 / ratetol=1.0 / qcomp=0.60 / qpmin=0 / qpmax=69 / qpstep=4 / vbv_maxrate=50000 / vbv_bufsize=62500 / nal_hrd=none / filler=0 / ip_ratio=1.40 / aq=1:1.00
Default : Yes
Forced : No
Color range : Limited
Color primaries : BT.709
Transfer characteristics : BT.709
Matrix coefficients : BT.709

Audio #1
ID : 2
Format : AC-3
Format/Info : Audio Coding 3
Commercial name : Dolby Digital
Codec ID : A_AC3
Duration : 1 h 59 min
Bit rate mode : Constant
Bit rate : 448 kb/s
Channel(s) : 6 channels
Channel layout : L R C LFE Ls Rs
Sampling rate : 48.0 kHz
Frame rate : 31.250 FPS (1536 SPF)
Compression mode : Lossy
Stream size : 382 MiB (10%)
Title : Surround
Language : Italian
Service kind : Complete Main
Default : Yes
Forced : No

Audio #2
ID : 3
Format : AC-3
Format/Info : Audio Coding 3
Commercial name : Dolby Digital
Codec ID : A_AC3
Duration : 1 h 58 min
Bit rate mode : Constant
Bit rate : 448 kb/s
Channel(s) : 6 channels
Channel layout : L R C LFE Ls Rs
Sampling rate : 48.0 kHz
Frame rate : 31.250 FPS (1536 SPF)
Compression mode : Lossy
Stream size : 381 MiB (10%)
Title : Surround
Language : English
Service kind : Complete Main
Default : No
Forced : No

Discussion

Comments 0

Post Your Comment

Files in this torrent

FILENAMESIZE
1917 (2020) ITA-ENG Ac3 5.1 BDRip 1080p H264 [ArMor].mkv3.6 GB
1917.2020.ITA-ENG.Bluray.1080p_ita.srt62.9 KB
1917.2020.ITA-ENG.Bluray.1080p_ita_forced.srt1.5 KB
MV5BO.jpg37.2 KB

Alternative Torrents for 'ENG'.

TORRENT NAMEADDEDSIZESEEDSPEERSHEALTH
7/10/2020997 MB310218
7/9/20202 GB300259
7/12/2020964 MB217239
7/10/2020977 MB20577
7/12/2020877 MB17060
7/10/20201.6 GB168124
7/12/20201 GB15578
7/12/2020303 MB14748
7/12/20202.8 GB14256
7/12/20201.2 GB133647
7/8/20205 GB133110
7/2/20206 GB13239
7/11/20204.9 GB127168
6/30/20205.8 GB12176
7/12/2020799 MB11191