Fantasy Island (2020) 2160 HDR 5 1 X265 10bit Phun Psyz

Torrent Details

Fantasy Island (2020) 2160 HDR 5 1 x265 10bit Phun Psyz
Fantasy Island (2020) 2160 HDR 5 1 x265 10bit Phun Psyz

NAME
Fantasy Island (2020) 2160 HDR 5 1 x265 10bit Phun Psyz.torrent
CATEGORY
Movies
INFOHASH
80bb636d632a997ab7e98bad55577fcad67e1c3e
SIZE
2.7 GB in 1 file
ADDED
Uploaded on 08-05-2020 by our crawler pet called "Spidey".
SWARM
0 seeders & 0 peers
RATING
No votes yet.

Please login to vote for this torrent.


Description

www.imdb.com/title/tt0983946/



A horror adaptation of the popular '70s TV show about a magical island resort.



Source: DDR (Web)







Format                      : Matroska

Format version              : Version 4

File size                   : 2.71 GiB

Duration                    : 1 h 49 min

Overall bit rate            : 3 547 kb/s

Writing application         : HandBrake 1.2.0 2018121700

Writing library             : Lavf58.20.100



Video

ID                          : 1

Format                      : HEVC

Format/Info                 : High Efficiency Video Coding

Format profile              : Main [email protected]@High

Codec ID                    : V_MPEGH/ISO/HEVC

Duration                    : 1 h 49 min

Bit rate                    : 3 156 kb/s

Width                       : 3 840 pixels

Height                      : 1 608 pixels

Display aspect ratio        : 2.40:1

Frame rate mode             : Constant

Frame rate                  : 23.976 (24000/1001) FPS

Color space                 : YUV

Chroma subsampling          : 4:2:0

Bit depth                   : 10 bits

Bits/(Pixel*Frame)          : 0.021

Stream size                 : 2.41 GiB (89%)

Writing library             : x265 2.9:[Windows][GCC 7.1.0][64 bit] 10bit

Color range                 : Limited

Color primaries             : BT.2020

Transfer characteristics    : PQ

Matrix coefficients         : BT.2020 non-constant



Audio

ID                          : 2

Format                      : AC-3

Format/Info                 : Audio Coding 3

Commercial name             : Dolby Digital

Codec ID                    : A_AC3

Duration                    : 1 h 49 min

Bit rate mode               : Constant

Bit rate                    : 320 kb/s

Channel(s)                  : 6 channels

Channel layout              : L R C LFE Ls Rs

Sampling rate               : 48.0 kHz

Frame rate                  : 31.250 FPS (1536 SPF)

Bit depth                   : 16 bits

Compression mode            : Lossy

Delay relative to video     : -5 ms

Stream size                 : 250 MiB (9%)

Title                       : Surround

Language                    : English



Text

Language                    : English

Language                    : French

Default                     : No

Forced                      : No

Discussion

Comments 0

Post Your Comment

Files in this torrent

FILENAMESIZE
Fantasy Island (2020) 2160 HDR 5.1 x265 10bit Phun Psyz.mkv2.7 GB

Alternative Torrents for 'Fantasy Island HDR bit Phun Psyz'.

TORRENT NAMEADDEDSIZESEEDSPEERSHEALTH
6/22/20202 GB38123
6/16/20201.5 GB2215
6/19/20201.9 GB19710
6/24/20201.2 GB1917
6/25/20201.9 GB1884
6/17/20205 GB13813
6/16/202011.4 GB12213
6/18/20201.5 GB996
6/28/20203.4 GB9326
6/28/20206.6 GB83106
6/18/20204 GB7810
6/22/20203.2 GB668
6/18/202010 GB644
Yesterday326 MB547
Yesterday1.7 GB5033