Bad Boys For Life 2020 DVD9 PAL-iCMAL

Torrent Details

Bad Boys for Life 2020 DVD9 PAL-iCMAL
Bad Boys for Life 2020 DVD9 PAL-iCMAL

NAME
Bad Boys for Life 2020 DVD9 PAL-iCMAL.torrent
CATEGORY
Movies
INFOHASH
c06dbe01dfe97b903799968e82bb796eb75a0b0f
SIZE
6.5 GB in 50 files
ADDED
Uploaded on 10-05-2020 by our crawler pet called "Spidey".
SWARM
0 seeders & 0 peers
RATING
No votes yet.

Please login to vote for this torrent.


Description

Bad Boys for Life 2020 DVD9 PAL-iCMAL_-_torrentgalaxy.to TÜRKÇE DUBLAJLI

































General

Complete name                            : C:UsersAdminDownloadsBad Boys for Life 2020 DVD9 PAL-iCMALVIDEO_TSVTS_02_2.VOB

Format                                   : MPEG-PS

File size                                : 1 024 MiB

Duration                                 : 20 min 24 s

Overall bit rate mode                    : Variable

Overall bit rate                         : 7 013 kb/s



Video

ID                                       : 224 (0xE0)

Format                                   : MPEG Video

Format version                           : Version 2

Format profile                           : [email protected]

Format settings                          : CustomMatrix / BVOP

Format settings, BVOP                    : Yes

Format settings, Matrix                  : Custom

Format settings, GOP                     : Variable

Duration                                 : 20 min 24 s

Bit rate mode                            : Variable

Bit rate                                 : 4 697 kb/s

Maximum bit rate                         : 7 000 kb/s

Width                                    : 720 pixels

Height                                   : 576 pixels

Display aspect ratio                     : 16:9

Frame rate                               : 25.000 FPS

Standard                                 : PAL

Color space                              : YUV

Chroma subsampling                       : 4:2:0

Bit depth                                : 8 bits

Scan type                                : Progressive

Scan order                               : Bottom Field First

Compression mode                         : Lossy

Bits/(Pixel*Frame)                       : 0.453

Time code of first frame                 : 01:19:57:05

Time code source                         : Group of pictures header

Stream size                              : 686 MiB (67%)



Audio #1

ID                                       : 189 (0xBD)-128 (0x80)

Format                                   : AC-3

Format/Info                              : Audio Coding 3

Commercial name                          : Dolby Digital

Muxing mode                              : DVD-Video

Duration                                 : 20 min 24 s

Bit rate mode                            : Constant

Bit rate                                 : 448 kb/s

Channel(s)                               : 6 channels

Channel layout                           : L R C LFE Ls Rs

Sampling rate                            : 48.0 kHz

Frame rate                               : 31.250 FPS (1536 SPF)

Compression mode                         : Lossy

Delay relative to video                  : -560 ms

Stream size                              : 65.4 MiB (6%)

Service kind                             : Complete Main



Audio #2

ID                                       : 189 (0xBD)-129 (0x81)

Format                                   : AC-3

Format/Info                              : Audio Coding 3

Commercial name                          : Dolby Digital

Muxing mode                              : DVD-Video

Duration                                 : 20 min 24 s

Bit rate mode                            : Constant

Bit rate                                 : 384 kb/s

Channel(s)                               : 6 channels

Channel layout                           : L R C LFE Ls Rs

Sampling rate                            : 48.0 kHz

Frame rate                               : 31.250 FPS (1536 SPF)

Compression mode                         : Lossy

Delay relative to video                  : -592 ms

Stream size                              : 56.1 MiB (5%)

Service kind                             : Complete Main



Audio #3

ID                                       : 189 (0xBD)-130 (0x82)

Format                                   : AC-3

Format/Info                              : Audio Coding 3

Commercial name                          : Dolby Digital

Muxing mode                              : DVD-Video

Duration                                 : 20 min 24 s

Bit rate mode                            : Constant

Bit rate                                 : 384 kb/s

Channel(s)                               : 6 channels

Channel layout                           : L R C LFE Ls Rs

Sampling rate                            : 48.0 kHz

Frame rate                               : 31.250 FPS (1536 SPF)

Compression mode                         : Lossy

Delay relative to video                  : -592 ms

Stream size                              : 56.1 MiB (5%)

Service kind                             : Complete Main



Audio #4

ID                                       : 189 (0xBD)-131 (0x83)

Format                                   : AC-3

Format/Info                              : Audio Coding 3

Commercial name                          : Dolby Digital

Muxing mode                              : DVD-Video

Duration                                 : 20 min 24 s

Bit rate mode                            : Constant

Bit rate                                 : 192 kb/s

Channel(s)                               : 2 channels

Channel layout                           : L R

Sampling rate                            : 48.0 kHz

Frame rate                               : 31.250 FPS (1536 SPF)

Compression mode                         : Lossy

Delay relative to video                  : -496 ms

Stream size                              : 28.0 MiB (3%)

Service kind                             : Complete Main



Audio #5

ID                                       : 189 (0xBD)-132 (0x84)

Format                                   : AC-3

Format/Info                              : Audio Coding 3

Commercial name                          : Dolby Digital

Muxing mode                              : DVD-Video

Duration                                 : 20 min 24 s

Bit rate mode                            : Constant

Bit rate                                 : 384 kb/s

Channel(s)                               : 6 channels

Channel layout                           : L R C LFE Ls Rs

Sampling rate                            : 48.0 kHz

Frame rate                               : 31.250 FPS (1536 SPF)

Compression mode                         : Lossy

Delay relative to video                  : -592 ms

Stream size                              : 56.1 MiB (5%)

Service kind                             : Complete Main



Audio #6

ID                                       : 189 (0xBD)-133 (0x85)

Format                                   : AC-3

Format/Info                              : Audio Coding 3

Commercial name                          : Dolby Digital

Muxing mode                              : DVD-Video

Duration                                 : 20 min 24 s

Bit rate mode                            : Constant

Bit rate                                 : 384 kb/s

Channel(s)                               : 6 channels

Channel layout                           : L R C LFE Ls Rs

Sampling rate                            : 48.0 kHz

Frame rate                               : 31.250 FPS (1536 SPF)

Compression mode                         : Lossy

Delay relative to video                  : -592 ms

Stream size                              : 56.1 MiB (5%)

Service kind                             : Complete Main



Text #1

ID                                       : 189 (0xBD)-32 (0x20)

Format                                   : RLE

Format/Info                              : Run-length encoding

Muxing mode                              : DVD-Video

Delay relative to video                  : 920 ms



Text #2

ID                                       : 189 (0xBD)-33 (0x21)

Format                                   : RLE

Format/Info                              : Run-length encoding

Muxing mode                              : DVD-Video

Delay relative to video                  : 120 ms



Text #3

ID                                       : 189 (0xBD)-34 (0x22)

Format                                   : RLE

Format/Info                              : Run-length encoding

Muxing mode                              : DVD-Video

Delay relative to video                  : -280 ms



Text #4

ID                                       : 189 (0xBD)-35 (0x23)

Format                                   : RLE

Format/Info                              : Run-length encoding

Muxing mode                              : DVD-Video

Delay relative to video                  : -280 ms



Text #5

ID                                       : 189 (0xBD)-36 (0x24)

Format                                   : RLE

Format/Info                              : Run-length encoding

Muxing mode                              : DVD-Video

Delay relative to video                  : 920 ms



Text #6

ID                                       : 189 (0xBD)-37 (0x25)

Format                                   : RLE

Format/Info                              : Run-length encoding

Muxing mode                              : DVD-Video

Delay relative to video                  : 920 ms



Text #7

ID                                       : 189 (0xBD)-38 (0x26)

Format                                   : RLE

Format/Info                              : Run-length encoding

Muxing mode                              : DVD-Video

Delay relative to video                  : 920 ms



Text #8

ID                                       : 189 (0xBD)-39 (0x27)

Format                                   : RLE

Format/Info                              : Run-length encoding

Muxing mode                              : DVD-Video

Delay relative to video                  : -240 ms



Text #9

ID                                       : 189 (0xBD)-40 (0x28)

Format                                   : RLE

Format/Info                              : Run-length encoding

Muxing mode                              : DVD-Video

Delay relative to video                  : 920 ms



Text #10

ID                                       : 189 (0xBD)-41 (0x29)

Format                                   : RLE

Format/Info                              : Run-length encoding

Muxing mode                              : DVD-Video

Delay relative to video                  : 1 s 0 ms



Text #11

ID                                       : 189 (0xBD)-42 (0x2A)

Format                                   : RLE

Format/Info                              : Run-length encoding

Muxing mode                              : DVD-Video

Delay relative to video                  : 920 ms



Text #12

ID                                       : 189 (0xBD)-43 (0x2B)

Format                                   : RLE

Format/Info                              : Run-length encoding

Muxing mode                              : DVD-Video

Delay relative to video                  : 1 s 0 ms



Text #13

ID                                       : 189 (0xBD)-44 (0x2C)

Format                                   : RLE

Format/Info                              : Run-length encoding

Muxing mode                              : DVD-Video

Delay relative to video                  : -280 ms



Text #14

ID                                       : 189 (0xBD)-45 (0x2D)

Format                                   : RLE

Format/Info                              : Run-length encoding

Muxing mode                              : DVD-Video

Delay relative to video                  : -280 ms



Text #15

ID                                       : 189 (0xBD)-46 (0x2E)

Format                                   : RLE

Format/Info                              : Run-length encoding

Muxing mode                              : DVD-Video

Delay relative to video                  : 880 ms



Text #16

ID                                       : 189 (0xBD)-47 (0x2F)

Format                                   : RLE

Format/Info                              : Run-length encoding

Muxing mode                              : DVD-Video

Delay relative to video                  : -240 ms



Menu









































































iCMAL DAĞITIM GURUBU TÜRKÇE DİL ESAS ALAN BİR DAĞITIM GURUBUDUR. ARTIK KAPALI TORRENT GURUPLARININ MODASI GEÇMİŞ VE KAMU AÇIK TORRENT GURUPLARI FAVORİ OLMUŞTUR. İŞTE iCMAL DAĞITIM GURUBU PRIVATE TRACKER ÇIKIP, PUBLIC TRACKER GEÇİŞ YAPMIŞTIR. LÜTFEN YORUMLARINIZ İLE iCMAL DESTEKLEYİN. İYİ SEYİRLER DİLEĞİYLE.



iCMAL RELEASE GROUP 2014

Discussion

Comments 0

Post Your Comment

Files in this torrent

FILENAMESIZE
iCMAL.jpg63.9 KB
iMAGES/vlcsnap-2020-05-10-15h12m34s907.png588 KB
iMAGES/vlcsnap-2020-05-10-15h12m51s117.png873.5 KB
iMAGES/vlcsnap-2020-05-10-15h12m55s369.png875 KB
iMAGES/vlcsnap-2020-05-10-15h12m59s186.png201.6 KB
iMAGES/vlcsnap-2020-05-10-15h13m04s066.png185.3 KB
iMAGES/vlcsnap-2020-05-10-15h13m11s448.png828.1 KB
iMAGES/vlcsnap-2020-05-10-15h13m18s248.png843.7 KB
iMAGES/vlcsnap-2020-05-10-15h13m29s433.png857 KB
iMAGES/vlcsnap-2020-05-10-15h13m34s070.png855.7 KB
iMAGES/vlcsnap-2020-05-10-15h13m38s690.png853.1 KB
iMAGES/vlcsnap-2020-05-10-15h13m46s827.png824.9 KB
iMAGES/vlcsnap-2020-05-10-15h13m50s836.png849.9 KB
iMAGES/vlcsnap-2020-05-10-15h13m54s935.png828.3 KB
iMAGES/vlcsnap-2020-05-10-15h13m59s422.png828.2 KB
iMAGES/vlcsnap-2020-05-10-15h14m06s934.png852.5 KB
VIDEO_TS/VIDEO_TS.BUP18 KB
VIDEO_TS/VIDEO_TS.IFO18 KB
VIDEO_TS/VIDEO_TS.VOB154 KB
VIDEO_TS/VTS_01_0.BUP40 KB
VIDEO_TS/VTS_01_0.IFO40 KB
VIDEO_TS/VTS_01_0.VOB132.1 MB
VIDEO_TS/VTS_01_1.VOB7.9 MB
VIDEO_TS/VTS_02_0.BUP72 KB
VIDEO_TS/VTS_02_0.IFO72 KB
VIDEO_TS/VTS_02_0.VOB154 KB
VIDEO_TS/VTS_02_1.VOB1024 MB
VIDEO_TS/VTS_02_2.VOB1024 MB
VIDEO_TS/VTS_02_3.VOB1024 MB
VIDEO_TS/VTS_02_4.VOB1024 MB
VIDEO_TS/VTS_02_5.VOB1024 MB
VIDEO_TS/VTS_02_6.VOB1024 MB
VIDEO_TS/VTS_02_7.VOB5.8 MB
VIDEO_TS/VTS_03_0.BUP20 KB
VIDEO_TS/VTS_03_0.IFO20 KB
VIDEO_TS/VTS_03_0.VOB154 KB
VIDEO_TS/VTS_03_1.VOB250.2 MB
VIDEO_TS/VTS_04_0.BUP18 KB
VIDEO_TS/VTS_04_0.IFO18 KB
VIDEO_TS/VTS_04_0.VOB154 KB
VIDEO_TS/VTS_04_1.VOB85.7 MB
VIDEO_TS/VTS_05_0.BUP18 KB
VIDEO_TS/VTS_05_0.IFO18 KB
VIDEO_TS/VTS_05_0.VOB154 KB
VIDEO_TS/VTS_05_1.VOB41.3 MB
VIDEO_TS/VTS_06_0.BUP18 KB
VIDEO_TS/VTS_06_0.IFO18 KB
VIDEO_TS/VTS_06_0.VOB154 KB
VIDEO_TS/VTS_06_1.VOB21.9 MB
[TGx]Downloaded from torrentgalaxy.to .txt585 B

Alternative Torrents for 'Bad Boys for Life DVD PALiCMAL'.

TORRENT NAMEADDEDSIZESEEDSPEERSHEALTH
6/22/20201.9 GB2552
6/27/20202 MB19128
Yesterday698 MB1758
6/28/202088 MB14542
6/28/20203 MB14229
6/27/2020883 MB13149
6/28/2020894 MB122116
6/27/20201.4 GB12098
6/28/20207 MB11918
6/22/20203 MB1167
6/28/2020316 MB10531
6/28/20201.8 GB10571
6/22/20205.5 GB1017
6/28/20201 MB9914
Yesterday3 MB9414