Mermaid Down (2019) (1080p AMZN Webrip X265 10bit EAC3 5.1 - DUHiT)[TAoE]

Torrent Details

Mermaid Down (2019) (1080p AMZN Webrip x265 10bit EAC3 5.1  - DUHiT)<span style=color:#fc9c6d>[TAoE]</span>
Mermaid Down (2019) (1080p AMZN Webrip x265 10bit EAC3 5.1  - DUHiT)<span style=color:#fc9c6d>[TAoE]</span>

NAME
Mermaid Down (2019) (1080p AMZN Webrip x265 10bit EAC3 5.1 - DUHiT)[TAoE].torrent
CATEGORY
Movies
INFOHASH
05b0d9f6236a17eab552b3b4994b62c16ec97ff1
SIZE
1.8 GB in 1 file
ADDED
Uploaded on 11-05-2020 by our crawler pet called "Spidey".
SWARM
0 seeders & 0 peers
RATING
No votes yet.

Please login to vote for this torrent.


Description









Mermaid Down (2019) IMDB















Media Information



General

Unique ID                                : 313099617736512432791671746976254055911 (0xEB8CCAFDF39F2999BE13ECB1FE8CD5E7)

Complete name                            : Mermaid Down (2019) (1080p AMZN Webrip x265 10bit EAC3 5.1  - DUHiT)[TAoE].mkv

Format                                   : Matroska

Format version                           : Version 4

File size                                : 1.84 GiB

Duration                                 : 1 h 34 min

Overall bit rate                         : 2 779 kb/s

Movie name                               : Mermaid Down (2019) (1080p AMZN Webrip x265 10bit EAC3 5.1  - DUHiT)[TAoE]

Writing application                      : Lavf58.29.100

Writing library                          : Lavf58.29.100

ErrorDetectionType                       : Per level 1



Video

ID                                       : 1

Format                                   : HEVC

Format/Info                              : High Efficiency Video Coding

Format profile                           : Main [email protected]@Main

Codec ID                                 : V_MPEGH/ISO/HEVC

Duration                                 : 1 h 34 min

Bit rate                                 : 2 328 kb/s

Width                                    : 1 920 pixels

Height                                   : 800 pixels

Display aspect ratio                     : 2.40:1

Frame rate mode                          : Variable

Frame rate                               : 23.976 (23976/1000) FPS

Original frame rate                      : 23.976 (24000/1001) FPS

Color space                              : YUV

Chroma subsampling                       : 4:2:0

Bit depth                                : 10 bits

Bits/(Pixel*Frame)                       : 0.063

Stream size                              : 1.54 GiB (84%)

Writing library                          : x265 3.3:[Linux][GCC 9.3.0][64 bit] 10bit

Encoding settings                        : cpuid=1049583 / frame-threads=5 / wpp / pmode / pme / no-psnr / no-ssim / log-level=2 / input-csp=1 / input-res=1920x800 / interlace=0 / total-frames=0 / level-idc=0 / high-tier=1 / uhd-bd=0 / ref=4 / no-allow-non-conformance / no-repeat-headers / annexb / no-aud / no-hrd / info / hash=0 / no-temporal-layers / open-gop / min-keyint=23 / keyint=250 / gop-lookahead=0 / bframes=8 / b-adapt=2 / b-pyramid / bframe-bias=0 / rc-lookahead=80 / lookahead-slices=4 / scenecut=40 / hist-scenecut=0 / radl=0 / no-splice / no-intra-refresh / ctu=64 / min-cu-size=8 / rect / no-amp / max-tu-size=32 / tu-inter-depth=1 / tu-intra-depth=1 / limit-tu=0 / rdoq-level=2 / dynamic-rd=0.00 / no-ssim-rd / signhide / no-tskip / nr-intra=0 / nr-inter=0 / no-constrained-intra / strong-intra-smoothing / max-merge=3 / limit-refs=0 / limit-modes / me=3 / subme=5 / merange=57 / temporal-mvp / no-frame-dup / no-hme / weightp / no-weightb / no-analyze-src-pics / deblock=-2:-2 / no-sao / no-sao-non-deblock / rd=6 / selective-sao=0 / no-early-skip / rskip / no-fast-intra / no-tskip-fast / no-cu-lossless / no-b-intra / no-splitrd-skip / rdpenalty=0 / psy-rd=2.00 / psy-rdoq=1.00 / no-rd-refine / no-lossless / cbqpoffs=0 / crqpoffs=0 / rc=crf / crf=19.5 / qcomp=0.60 / qpstep=4 / stats-write=0 / stats-read=0 / ipratio=1.40 / pbratio=1.30 / aq-mode=4 / aq-strength=1.10 / cutree / zone-count=0 / no-strict-cbr / qg-size=32 / no-rc-grain / qpmax=69 / qpmin=0 / no-const-vbv / sar=1 / overscan=0 / videoformat=5 / range=0 / colorprim=2 / transfer=2 / colormatrix=2 / chromaloc=0 / display-window=0 / cll=0,0 / min-luma=0 / max-luma=1023 / log2-max-poc-lsb=8 / vui-timing-info / vui-hrd-info / slices=1 / no-opt-qp-pps / no-opt-ref-list-length-pps / no-multi-pass-opt-rps / scenecut-bias=0.05 / hist-threshold=0.01 / no-opt-cu-delta-qp / no-aq-motion / no-hdr10 / no-hdr10-opt / no-dhdr10-opt / no-idr-recovery-sei / analysis-reuse-level=0 / analysis-save-reuse-level=0 / analysis-load-reuse-level=0 / scale-factor=0 / refine-intra=0 / refine-inter=0 / refine-mv=1 / refine-ctu-distortion=0 / no-limit-sao / ctu-info=0 / no-lowpass-dct / refine-analysis-type=0 / copy-pic=1 / max-ausize-factor=1.0 / no-dynamic-refine / no-single-sei / no-hevc-aq / no-svt / no-field / qp-adaptation-range=1.00 / no-scenecut-aware-qpconformance-window-offsets / right=0 / bottom=0

Default                                  : Yes

Forced                                   : No

Color range                              : Limited



Audio

ID                                       : 2

Format                                   : E-AC-3

Format/Info                              : Enhanced AC-3

Commercial name                          : Dolby Digital Plus

Codec ID                                 : A_EAC3

Duration                                 : 1 h 34 min

Bit rate mode                            : Constant

Bit rate                                 : 448 kb/s

Channel(s)                               : 6 channels

Channel layout                           : L R C LFE Ls Rs

Sampling rate                            : 48.0 kHz

Frame rate                               : 31.250 FPS (1536 SPF)

Bit depth                                : 32 bits

Compression mode                         : Lossy

Stream size                              : 303 MiB (16%)

Writing library                          : Lavc58.54.100 eac3

Language                                 : English

Service kind                             : Complete Main

Default                                  : Yes

Forced                                   : No



Text #1

ID                                       : 3

Format                                   : UTF-8

Codec ID                                 : S_TEXT/UTF8

Codec ID/Info                            : UTF-8 Plain Text

Duration                                 : 1 h 31 min

Bit rate                                 : 32 b/s

Count of elements                        : 716

Stream size                              : 21.7 KiB (0%)

Language                                 : English

Default                                  : No

Forced                                   : No



Text #2

ID                                       : 4

Format                                   : UTF-8

Codec ID                                 : S_TEXT/UTF8

Codec ID/Info                            : UTF-8 Plain Text

Duration                                 : 1 h 32 min

Bit rate                                 : 36 b/s

Count of elements                        : 937

Stream size                              : 24.9 KiB (0%)

Title                                    : SDH

Language                                 : English

Default                                  : No

Forced                                   : No









Source Information



General

Unique ID                                : 81161378578338911699111972453460283759 (0x3D0F1CE9304E8F354FCD0A86948D116F)

Complete name                            : Mermaid Down 2019 1080p AMZN WEB-DL DDP5.1 H.264-NTG.mkv

Format                                   : Matroska

Format version                           : Version 4

File size                                : 4.35 GiB

Duration                                 : 1 h 34 min

Overall bit rate                         : 6 576 kb/s

Encoded date                             : UTC 2020-04-02 07:17:54

Writing application                      : mkvmerge v21.0.0 ('Tardigrades Will Inherit The Earth') 64-bit

Writing library                          : libebml v1.3.5 + libmatroska v1.4.8



Video

ID                                       : 1

Format                                   : AVC

Format/Info                              : Advanced Video Codec

Format profile                           : [email protected]

Format settings                          : CABAC / 4 Ref Frames

Format settings, CABAC                   : Yes

Format settings, Reference frames        : 4 frames

Codec ID                                 : V_MPEG4/ISO/AVC

Duration                                 : 1 h 34 min

Bit rate mode                            : Constant

Bit rate                                 : 5 934 kb/s

Nominal bit rate                         : 10 000 kb/s

Width                                    : 1 920 pixels

Height                                   : 800 pixels

Display aspect ratio                     : 2.40:1

Frame rate mode                          : Constant

Frame rate                               : 23.976 (24000/1001) FPS

Color space                              : YUV

Chroma subsampling                       : 4:2:0

Bit depth                                : 8 bits

Scan type                                : Progressive

Bits/(Pixel*Frame)                       : 0.161

Stream size                              : 3.92 GiB (90%)

Default                                  : Yes

Forced                                   : No

Color range                              : Limited

Color primaries                          : BT.709

Transfer characteristics                 : BT.709

Matrix coefficients                      : BT.709



Audio

ID                                       : 2

Format                                   : E-AC-3

Format/Info                              : Enhanced AC-3

Commercial name                          : Dolby Digital Plus

Codec ID                                 : A_EAC3

Duration                                 : 1 h 34 min

Bit rate mode                            : Constant

Bit rate                                 : 640 kb/s

Channel(s)                               : 6 channels

Channel layout                           : L R C LFE Ls Rs

Sampling rate                            : 48.0 kHz

Frame rate                               : 31.250 FPS (1536 SPF)

Compression mode                         : Lossy

Stream size                              : 433 MiB (10%)

Language                                 : English

Service kind                             : Complete Main

Default                                  : Yes

Forced                                   : No



Text #1

ID                                       : 3

Format                                   : UTF-8

Codec ID                                 : S_TEXT/UTF8

Codec ID/Info                            : UTF-8 Plain Text

Duration                                 : 1 h 31 min

Bit rate                                 : 32 b/s

Count of elements                        : 716

Stream size                              : 21.7 KiB (0%)

Language                                 : English

Default                                  : No

Forced                                   : No



Text #2

ID                                       : 4

Format                                   : UTF-8

Codec ID                                 : S_TEXT/UTF8

Codec ID/Info                            : UTF-8 Plain Text

Duration                                 : 1 h 32 min

Bit rate                                 : 36 b/s

Count of elements                        : 937

Stream size                              : 24.9 KiB (0%)

Title                                    : SDH

Language                                 : English

Default                                  : No

Forced                                   : No









Hello everyone,

We are TAoE, a small team of passionate encoders who love encoding. We try our best to provide you with high quality releases.

If you would like to join the team just drop us a comment or send us a message.





.........................................................................................................................................

Discussion

Comments 0

Post Your Comment

Files in this torrent

FILENAMESIZE
Mermaid Down (2019) (1080p AMZN Webrip x265 10bit EAC3 5.1 - DUHiT)[TAoE].mkv1.8 GB

Alternative Torrents for 'Mermaid Down bit EAC DUHiT'.

TORRENT NAMEADDEDSIZESEEDSPEERSHEALTH
9/19/20202.2 GB92136
9/20/20201.7 GB7030
9/20/2020859 MB6538
9/20/20202.8 GB397
Yesterday1.1 GB2843
9/14/20201.1 GB162
9/8/202015.5 GB137
9/8/20202.4 GB130
9/17/202039 MB101
9/7/20207 MB90
9/18/2020255 MB85
9/11/2020671 MB83
9/11/202043.6 GB87
9/11/20205 MB81
9/7/2020377 MB81