Bad Boys For Life 2020 Lic BDRip 1.46GB X264

Torrent Details

Bad Boys for Life 2020 Lic BDRip 1.46GB x264
Bad Boys for Life 2020 Lic BDRip 1.46GB x264

NAME
Bad Boys for Life 2020 Lic BDRip 1.46GB x264.torrent
CATEGORY
Movies
INFOHASH
1338c964b2d596a988b043681fc2af5c1058c1f4
SIZE
1.5 GB in 1 file
ADDED
Uploaded on 12-05-2020 by our crawler pet called "Spidey".
SWARM
0 seeders & 0 peers
RATING
No votes yet.

Please login to vote for this torrent.


Description

«Вместе зажигаем. Вместе под пули»



Информация о фильме

Название: Плохие парни навсегда

Оригинальное название: Bad Boys for Life

Год выхода: 2020

Жанр: Боевик, триллер, комедия, криминал

Режиссер: Адиль Эль Арби, Билал Фалла

В ролях: Уилл Смит, Мартин Лоуренс, Александр Людвиг, Ванесса Энн Хадженс, Майкл Бэй, Джо Пантолиано, Паола Нуньес, Чарльз Мелтон, Кейт дель Кастильо, Ники Джем, Джейкоб Скипио



О фильме:

Детективы Майк Лоури и Маркус Бёрнетт снова в деле! Правда, их отстраняют от всех операций, но разве отчаянных друзей когда-нибудь что-либо останавливало? Ведь на этот раз на Майка открывает охоту некто из его прошлой жизни. Так что парням придется отжечь по полной!







Страна: США, Мексика

Студия: 2.0 Entertainment, Columbia Pictures Corporation, Columbia Pictures Mexico, Don Simpson/Jerry Bruckheimer Films, Overbrook Entertainment

Продолжительность: 02:03:58

Перевод:

• Профессиональный (полное дублирование) | Лицензия Blu-ray 4K EUR



Файл

Качество: BDRip-AVC

Исходник: Bad.Boys.for.Life.2020.BDREMUX.1080p.seleZen.mkv

Формат: MKV

Кодек: MPEG-4 AVC

Видео: 720x300 (2.40:1), 23.976 fps, MPEG-4 AVC ~ 1490 Kbps avg, 0.288 bit/pixel

Аудио: AC3, 48 kHz, 2 ch, ~192.00 kbps avg | русский | Blu-ray 4K EUR

Субтитры: Русские (Forced, Full)



Инфо-файлОбщее

Уникальный идентификатор : 72903017859213571637838535804967080913 (0x36D89C4A969499363D5FC0A7F23653D1)

Полное имя : Bad.Boys.for.Life.2020.Lic.BDRip.1.46Gb.x264.mkv

Формат : Matroska

Версия формата : Version 4

Размер файла : 1,46 Гбайт

Продолжительность : 2 ч. 3 м.

Общий поток : 1684 Кбит/сек

Название фильма : Плохие парни навсегда / Bad Boys for Life (2020)

Дата кодирования : UTC 2020-05-12 19:52:15

Программа кодирования : mkvmerge v46.0.0 ('No Deeper Escape') 64-bit

Библиотека кодирования : libebml v1.3.10 + libmatroska v1.5.2

Обложка : Yes

Attachments : cover.jpg



Видео

Идентификатор : 1

Формат : AVC

Формат/Информация : Advanced Video Codec

Профиль формата : [email protected]

Настройки формата : CABAC / 12 Ref Frames

Параметр CABAC формата : Да

Параметр RefFrames формата : 12 кадров

Идентификатор кодека : V_MPEG4/ISO/AVC

Продолжительность : 2 ч. 3 м.

Битрейт : 1490 Кбит/сек

Ширина : 720 пикселей

Высота : 300 пикселей

Соотношение сторон : 2,40:1

Режим частоты кадров : Постоянный

Частота кадров : 23,976 кадра/сек

Цветовое пространство : YUV

Субдискретизация насыщенности : 4:2:0

Битовая глубина : 8 бит

Тип развёртки : Прогрессивная

Бит/(Пиксели*Кадры) : 0.288

Размер потока : 1,29 Гбайт (88%)

Заголовок : #stillet

Библиотека кодирования : x264 core 152 r2851bm ba24899

Настройки программы : cabac=1 / ref=12 / deblock=1:-3:-3 / analyse=0x3:0x113 / me=umh / subme=11 / psy=1 / psy_rd=1.00:0.15 / mixed_ref=1 / me_range=32 / chroma_me=1 / trellis=2 / 8x8dct=1 / cqm=0 / deadzone=21,11 / fast_pskip=0 / chroma_qp_offset=-3 / threads=8 / lookahead_threads=3 / sliced_threads=0 / nr=0 / decimate=0 / interlaced=0 / bluray_compat=0 / constrained_intra=0 / bframes=12 / b_pyramid=2 / b_adapt=2 / b_bias=0 / direct=3 / weightb=1 / open_gop=0 / weightp=2 / keyint=240 / keyint_min=23 / scenecut=40 / intra_refresh=0 / rc=2pass / mbtree=0 / bitrate=1490 / ratetol=1.0 / qcomp=0.60 / qpmin=0 / qpmax=69 / qpstep=4 / cplxblur=20.0 / qblur=0.5 / ip_ratio=1.40 / pb_ratio=1.30 / aq=1:1.00

Язык : English

Default : Да

Forced : Нет



Аудио

Идентификатор : 2

Формат : AC-3

Формат/Информация : Audio Coding 3

Коммерческое название : Dolby Digital

Идентификатор кодека : A_AC3

Продолжительность : 2 ч. 3 м.

Вид битрейта : Постоянный

Битрейт : 192 Кбит/сек

Каналы : 2 канала

ChannelLayout : L R

Частота : 48,0 КГц

Частота кадров : 31,250 кадров/сек (1536 SPF)

Метод сжатия : С потерями

Размер потока : 170 Мбайт (11%)

Заголовок : Blu-ray 4K EUR

Язык : Russian

Default : Да

Forced : Да



Текст #1

Идентификатор : 3

Формат : UTF-8

Идентификатор кодека : S_TEXT/UTF8

Идентификатор кодека/Информация : UTF-8 Plain Text

Продолжительность : 2 ч. 0 м.

Битрейт : 4 бит/сек

ElementCount : 91

Размер потока : 4,27 Кбайт (0%)

Заголовок : Forced

Язык : Russian

Default : Да

Forced : Да



Текст #2

Идентификатор : 4

Формат : UTF-8

Идентификатор кодека : S_TEXT/UTF8

Идентификатор кодека/Информация : UTF-8 Plain Text

Продолжительность : 2 ч. 2 м.

Битрейт : 91 бит/сек

ElementCount : 1794

Размер потока : 82,6 Кбайт (0%)

Заголовок : Full

Язык : Russian

Default : Нет

Forced : Нет



Меню

00:00:00.000 : :Chapter 1

00:07:32.869 : :Chapter 2

00:14:56.770 : :Chapter 3

00:23:43.380 : :Chapter 4

00:31:05.738 : :Chapter 5

00:38:43.195 : :Chapter 6

00:45:26.473 : :Chapter 7

00:53:27.454 : :Chapter 8

01:00:22.160 : :Chapter 9

01:07:29.378 : :Chapter 10

01:12:55.287 : :Chapter 11

01:22:11.676 : :Chapter 12

01:29:49.217 : :Chapter 13

01:36:47.927 : :Chapter 14

01:42:08.622 : :Chapter 15

01:53:55.328 : :Chapter 16



Скриншоты

Discussion

Comments 0

Post Your Comment

Files in this torrent

FILENAMESIZE
Bad.Boys.for.Life.2020.Lic.BDRip.1.46Gb.x264.mkv1.5 GB

Alternative Torrents for 'Bad Boys for Life Lic'.

TORRENT NAMEADDEDSIZESEEDSPEERSHEALTH
6/4/20205.8 GB00
5/17/202013 GB00
5/14/202013 GB00
5/12/20202.9 GB00
5/12/20201.5 GB00
5/12/20205.8 GB00