Capone 2020 1080p WEBRip LakeFilms

Torrent Details

Capone 2020 1080p WEBRip<span style=color:#fc9c6d> LakeFilms</span>
Capone 2020 1080p WEBRip<span style=color:#fc9c6d> LakeFilms</span>

NAME
Capone 2020 1080p WEBRip LakeFilms.torrent
CATEGORY
Movies
INFOHASH
4884f232dfea8df862c0861948272079cff05103
SIZE
3 GB in 1 file
ADDED
Uploaded on 13-05-2020 by our crawler pet called "Spidey".
SWARM
0 seeders & 0 peers
RATING
No votes yet.

Please login to vote for this torrent.


Description

Название: Лицо со шрамом (Капоне)

Оригинальное название: Capone

Год выпуска: 2020

Жанр: Драма, криминал, биография

Выпущено: Канада, США,BRON Studios, A Band Apart, Addictive Pictures

Режиссер: Джош Транк

В ролях: Линда Карделлини, Том Харди, Ноэль Фишер, Кайл МакЛахлан, Мэтт Диллон, Кэтрин Нардуччи, Джек Лауден, Ал Сапиенза, Тильда Дель Торо, Уэйн Пер



О фильме: Вернувшись из тюрьмы, Аль Капоне продолжает оставаться предметом пристального внимания ФБР. Ведь при аресте так и не была найдена крупная сумма денег - итог всей криминальной деятельности знаменитого мафиози. По всему дому расставлены жучки, под подозрением каждый член большой семьи Капоне. Удастся ли спецслужбам добиться от теряющего память гангстера информации, где и при каких обстоятельствах он спрятал деньги? Или его болезнь - это хорошо продуманная игра?







Техданные

Качество: WEBRip (1080p)

Видео: MPEG-4 AVC, ~ 3607 kb/s, 1920x800, 23.976 FPS

Аудио: AC3, 2 ch, 384 Кбит/с

Продолжительность: 01:44:18

Перевод: Любительский двухголосый закадровый (LakeFilms)

Присутствует реклама!



Скриншоты

MIGeneral

Unique ID : 69159344659753911844831271343724790271 (0x34079AF3B97D3442A6B1015CE4BD81FF)

Complete name : D:Capone.2020.1080p.WEBRip.LakeFilms.mkv

Format : Matroska

Format version : Version 4 / Version 2

File size : 2.97 GiB

Duration : 1 h 44 min

Overall bit rate mode : Constant

Overall bit rate : 4 072 kb/s

Encoded date : UTC 2020-05-12 23:13:29

Writing application : Pegasys Standard Library

Writing library : Pegasys Standard Library



Video

ID : 2

Format : AVC

Format/Info : Advanced Video Codec

Format profile : [email protected]

Format settings : CABAC / 5 Ref Frames

Format settings, CABAC : Yes

Format settings, RefFrames : 5 frames

Codec ID : V_MPEG4/ISO/AVC

Duration : 1 h 44 min

Bit rate mode : Constant

Bit rate : 3 607 kb/s

Nominal bit rate : 4 500 kb/s / 4 500 kb/s

Width : 1 920 pixels

Height : 800 pixels

Display aspect ratio : 2.40:1

Frame rate mode : Constant

Frame rate : 23.976 (24000/1001) FPS

Standard : Component

Color space : YUV

Chroma subsampling : 4:2:0

Bit depth : 8 bits

Scan type : Progressive

Bits/(Pixel*Frame) : 0.098

Stream size : 2.63 GiB (89%)

Writing library : x264 core 136

Encoding settings : cabac=1 / ref=5 / deblock=1:0:0 / analyse=0x3:0x113 / me=hex / subme=7 / psy=1 / psy_rd=1.00:0.00 / mixed_ref=1 / me_range=16 / chroma_me=1 / trellis=1 / 8x8dct=1 / cqm=2 / deadzone=21,11 / fast_pskip=1 / chroma_qp_offset=-2 / threads=24 / lookahead_threads=4 / sliced_threads=0 / slices=1 / nr=0 / decimate=1 / interlaced=0 / bluray_compat=0 / constrained_intra=0 / bframes=3 / b_pyramid=0 / b_adapt=1 / b_bias=0 / direct=1 / weightb=1 / open_gop=0 / weightp=2 / keyint=250 / keyint_min=23 / scenecut=40 / intra_refresh=0 / rc_lookahead=40 / rc=cbr / mbtree=1 / bitrate=4500 / ratetol=1.0 / qcomp=0.60 / qpmin=3 / qpmax=69 / qpstep=4 / vbv_maxrate=4500 / vbv_bufsize=4500 / nal_hrd=cbr / ip_ratio=1.40 / aq=1:1.00

Default : Yes

Forced : No

Color range : Limited

Color primaries : BT.709

Transfer characteristics : BT.709

Matrix coefficients : BT.709



Audio

ID : 1

Format : AC-3

Format/Info : Audio Coding 3

Codec ID : A_AC3

Duration : 1 h 44 min

Bit rate mode : Constant

Bit rate : 384 kb/s

Channel(s) : 2 channels

Channel positions : Front: L R

Sampling rate : 48.0 kHz

Frame rate : 31.250 FPS (1536 SPF)

Bit depth : 16 bits

Compression mode : Lossy

Stream size : 286 MiB (9%)

Service kind : Complete Main

Default : Yes

Forced : No

Discussion

Comments 0

Post Your Comment

Files in this torrent

FILENAMESIZE
Capone.2020.1080p.WEBRip.LakeFilms.mkv3 GB

Alternative Torrents for 'Capone'.

TORRENT NAMEADDEDSIZESEEDSPEERSHEALTH
6/15/2020191 MB21
6/8/2020734 MB00
6/7/20201 GB00
6/7/20201.3 GB00
6/5/2020952 MB00
6/4/2020708 MB00
6/4/20204.7 GB00
6/4/20204.3 GB00
6/4/20203.3 GB00
5/30/20202.3 GB00
5/30/20203.1 GB00
5/30/20202.1 GB00
5/29/20202.1 GB00
5/29/20202 GB00
5/29/2020747 MB00