聊斋艳谭 Erotic Ghost Story 1990 HK BluRay 1920x1080p X264 AC3-KOOK [国粤双语中字]

Torrent Details

聊斋艳谭 Erotic Ghost Story 1990 HK BluRay 1920x1080p x264 AC3-KOOK [国粤双语中字]

NAME
聊斋艳谭 Erotic Ghost Story 1990 HK BluRay 1920x1080p x264 AC3-KOOK [国粤双语中字].torrent
CATEGORY
Movies
INFOHASH
983443450d2050169580012fabc86b2f1910f493
SIZE
7.3 GB in 0 files
ADDED
Uploaded on 13-05-2020 by our crawler pet called "Spidey".
SWARM
0 seeders & 0 peers
RATING
No votes yet.

Please login to vote for this torrent.


Description

聊斋艳谭.Erotic Ghost Story.1990.HK.BluRay.1920x1080p.x264.AC3-KOOK.[国粤双语中字] 7.29G无广告,无水印,欢迎转载不定时做种,保证出种,请耐心等待. X86_64]Encoding settings              : cabac=1 / ref=4 / deblock=1:1:1 / analyse=0x3:0x133 / me=umh / subme=10 / psy=1 / fade_compensate=0.00 / psy_rd=0.30:0.00 / mixed_ref=1 / me_range=24 / chroma_me=1 / trellis=2 / 8x8dct=1 / cqm=0 / deadzone=21,11 / fast_pskip=1 / chroma_qp_offset=-2 / threads=12 / lookahead_threads=1 / sliced_threads=0 / nr=0 / decimate=1 / interlaced=0 / bluray_compat=0 / constrained_intra=0 / fgo=0 / bframes=3 / b_pyramid=2 / b_adapt=2 / b_bias=0 / direct=3 / weightb=1 / open_gop=0 / weightp=2 / keyint=240 / keyint_min=1 / scenecut=60 / intra_refresh=0 / rc_lookahead=60 / rc=2pass / mbtree=1 / bitrate=11000 / ratetol=1.0 / qcomp=0.50 / qpmin=0:0:0 / qpmax=69:69:69 / qpstep=4 / cplxblur=20.0 / qblur=0.5 / ip_ratio=1.40 / aq=2:0.80 / aq-sensitivity=10.00 / aq-factor=1.00:1.00:1.00 / aq2=0 / aq3=0Default                        : YesForced                         : NoColor range                    : LimitedMatrix coefficients            : BT.709Audio #1ID                             : 2Format                         : AC-3Format/Info                    : Audio Coding 3Commercial name                : Dolby DigitalCodec ID                       : A_AC3Duration                       : 1 h 29 minBit rate mode                  : ConstantBit rate                       : 224 kb/sChannel(s)                     : 2 channelsChannel layout                 : L RSampling rate                  : 48.0 kHzFrame rate                     : 31.250 FPS (1536 SPF)Bit depth                      : 16 bitsCompression mode               : LossyStream size                    : 143 MiB (2%)Title                          : 国语Language                       : ChineseService kind                   : Complete MainDefault                        : YesForced                         : NoAudio #2ID                             : 3Format                         : AC-3Format/Info                    : Audio Coding 3Commercial name                : Dolby DigitalCodec ID                       : A_AC3Duration                       : 1 h 29 minBit rate mode                  : ConstantBit rate                       : 448 kb/sChannel(s)                     : 2 channelsChannel layout                 : L RSampling rate                  : 48.0 kHzFrame rate                     : 31.250 FPS (1536 SPF)Bit depth                      : 16 bitsCompression mode               : LossyStream size                    : 286 MiB (4%)Title                          : 粤语Language                       : ChineseService kind                   : Complete MainDefault                        : NoForced                         : NoText #1ID                             : 4Format                         : ASSCodec ID                       : S_TEXT/ASSCodec ID/Info                  : Advanced Sub Station AlphaDuration                       : 1 h 28 minBit rate                       : 61 b/sCount of elements              : 614Compression mode               : LosslessStream size                    : 39.4 KiB (0%)Title                          : 简体字幕Language                       : ChineseDefault                        : YesForced                         : NoText #2ID                             : 5Format                         : ASSCodec ID                       : S_TEXT/ASSCodec ID/Info                  : Advanced Sub Station AlphaDuration                       : 1 h 28 minBit rate                       : 61 b/sCount of elements              : 614Compression mode               : LosslessStream size                    : 39.4 KiB (0%)Title                          : 繁体字幕Language                       : ChineseDefault                        : NoForced                         : No

Discussion

Comments 0

Post Your Comment

Torrent Files (Unavailable)

Please check back later to get a list of all files included in this torrent.

Alternative Torrents for '聊斋艳谭 Erotic Ghost Story HK BluRay xp KOOK 国粤双语中字'.

There are no alternative torrents found.