Capone 2020 HDRip XviD B4ND1T69

Torrent Details

Capone 2020 HDRip XviD<span style=color:#fc9c6d> B4ND1T69</span>
Capone 2020 HDRip XviD<span style=color:#fc9c6d> B4ND1T69</span>

NAME
Capone 2020 HDRip XviD B4ND1T69.torrent
CATEGORY
Movies
INFOHASH
ae652266212008da03db7e09d7cffa4f6e0b64a2
SIZE
775 MB in 4 files
ADDED
Uploaded on 14-05-2020 by our crawler pet called "Spidey".
SWARM
0 seeders & 0 peers
RATING
No votes yet.

Please login to vote for this torrent.


Description

Capone.2020.HDRip.XviD.B4ND1T69



Director: Josh Trank
Writer: Josh Trank
Stars: Tom Hardy, Linda Cardellini, Matt Dillon

Plot/Story:
The 47-year old Al Capone, after 10 years in prison, starts suffering from dementia and comes to be haunted by his violent past.

General
Complete name : Capone.2020.HDRip.XviD.B4ND1T69.avi
Format : AVI
Format/Info : Audio Video Interleave
File size : 775 MiB
Duration : 1 h 43 min
Overall bit rate : 1 042 kb/s
Subtitles : Yes...Included(HI)

Video
ID : 0
Format : MPEG-4 Visual
Format profile : Advanced [email protected]
Format settings, BVOP : 2
Format settings, QPel : No
Format settings, GMC : No warppoints
Format settings, Matrix : Default (H.263)
Codec ID : XVID
Codec ID/Hint : XviD
Duration : 1 h 43 min
Bit rate : 901 kb/s
Width : 720 pixels
Height : 304 pixels
Display aspect ratio : 2.35:1
Frame rate : 23.976 (24000/1001) FPS
Color space : YUV
Chroma subsampling : 4:2:0
Bit depth : 8 bits
Scan type : Progressive
Compression mode : Lossy
Bits/(Pixel*Frame) : 0.172
Stream size : 670 MiB (86%)
Writing library : XviD 64

Audio
ID : 1
Format : MPEG Audio
Format version : Version 1
Format profile : Layer 3
Codec ID : 55
Codec ID/Hint : MP3
Duration : 1 h 43 min
Bit rate mode : Constant
Bit rate : 128 kb/s
Channel(s) : 2 channels
Sampling rate : 48.0 kHz
Compression mode : Lossy
Stream size : 95.2 MiB (12%)
Alignment : Aligned on interleaves
Interleave, duration : 24 ms (0.58 video frame)

Screenshots:









Please Seed For As Long As Possible
Or At Least 1:1 Ratio...Thanks
Enjoy Peeps

Discussion

Comments 0

Post Your Comment

Files in this torrent

FILENAMESIZE
1337x text file.txt61 B
Capone.2020.HDRip.XviD.B4ND1T69.avi774.9 MB
Capone.2020.HDRip.XviD.B4ND1T69.srt87.6 KB
Downloaded from katcr.co.txt139 B

Alternative Torrents for 'Capone'.

TORRENT NAMEADDEDSIZESEEDSPEERSHEALTH
6/15/2020191 MB21
6/8/2020734 MB00
6/7/20201 GB00
6/7/20201.3 GB00
6/5/2020952 MB00
6/4/2020708 MB00
6/4/20204.7 GB00
6/4/20204.3 GB00
6/4/20203.3 GB00
5/30/20202.3 GB00
5/30/20203.1 GB00
5/30/20202.1 GB00
5/29/20202.1 GB00
5/29/20202 GB00
5/29/2020747 MB00