The Wrong Missy 2020 720p LakeFilms

Torrent Details

The Wrong Missy 2020 720p<span style=color:#fc9c6d> LakeFilms</span>
The Wrong Missy 2020 720p<span style=color:#fc9c6d> LakeFilms</span>

NAME
The Wrong Missy 2020 720p LakeFilms.torrent
CATEGORY
Movies
INFOHASH
296df86e0888fe5f402ca197480e3dbe4d619adb
SIZE
2 GB in 1 file
ADDED
Uploaded on 14-05-2020 by our crawler pet called "Spidey".
SWARM
0 seeders & 0 peers
RATING
No votes yet.

Please login to vote for this torrent.


Description

Название: Не та девушка

Оригинальное название: The Wrong Missy

Год выпуска: 2020

Жанр: Мелодрама, комедия

Выпущено: США, Happy Madison Productions, NetFlix, QC Entertainment

Режиссер: Тайлер Спиндел

В ролях: Дэвид Спейд, Лорен Лапкус, Ник Свардсон, Джеффри Пирсон, Молли Симс, Сара Чок, Ванилла Айс, Джон Фарли, Лори Пелениз Туисано, Крис Витаск



О фильме: Когда Тим Моррис случайно знакомится с очаровательной Мисси, то понимает, что встретил девушку своей мечты. Чтобы покорить ее сердце, герой решает пригласить красавицу провести с ним уик-энд на шикарном курорте, где его компания проводит корпоратив. Но Тим ошибается и отправляет сообщение другой Мисси — взбалмошной, эксцентричной особе, которая не стесняется демонстрировать свои недостатки.







Техданные

Качество: WEBRip (720p)

Видео: MPEG-4 AVC, ~ 3000 kb/s, 1280x534, 24 FPS

Аудио: AC3, 2 ch, 256 Кбит/с

Продолжительность: 01:30:25

Перевод: Любительский двухголосый закадровый (LakeFilms)

Присутствует реклама!



Скриншоты

MIGeneral

Unique ID : 129332476601860889410452565921380440394 (0x614C876910DF68DF9A05FB07791C194A)

Complete name : D:The.Wrong.Missy.2020.720p.LakeFilms.mkv

Format : Matroska

Format version : Version 4 / Version 2

File size : 2.03 GiB

Duration : 1 h 30 min

Overall bit rate : 3 207 kb/s

Writing application : XviD4PSP 8.0.96

Writing library : Lavf58.29.100

ErrorDetectionType : Per level 1

ENCODING_INFO : MATROSKA,WEBM > MKV



Video

ID : 1

Format : AVC

Format/Info : Advanced Video Codec

Format profile : [email protected]

Format settings : CABAC / 4 Ref Frames

Format settings, CABAC : Yes

Format settings, RefFrames : 4 frames

Codec ID : V_MPEG4/ISO/AVC

Duration : 1 h 30 min

Bit rate : 3 000 kb/s

Width : 1 280 pixels

Height : 534 pixels

Display aspect ratio : 2.40:1

Frame rate mode : Constant

Frame rate : 24.000 FPS

Color space : YUV

Chroma subsampling : 4:2:0

Bit depth : 8 bits

Scan type : Progressive

Bits/(Pixel*Frame) : 0.183

Stream size : 1.82 GiB (90%)

Writing library : x264 core 157 r2958 57baac4

Encoding settings : cabac=1 / ref=1 / deblock=1:-1:-1 / analyse=0x3:0x3 / me=hex / subme=1 / psy=1 / psy_rd=1.00:0.00 / mixed_ref=0 / me_range=16 / chroma_me=1 / trellis=0 / 8x8dct=1 / cqm=0 / deadzone=21,11 / fast_pskip=1 / chroma_qp_offset=0 / threads=5 / lookahead_threads=1 / sliced_threads=0 / nr=0 / decimate=1 / interlaced=0 / bluray_compat=0 / constrained_intra=0 / bframes=3 / b_pyramid=2 / b_adapt=1 / b_bias=0 / direct=1 / weightb=1 / open_gop=0 / weightp=1 / keyint=240 / keyint_min=24 / scenecut=40 / intra_refresh=0 / rc=abr / mbtree=0 / bitrate=3000 / ratetol=1.0 / qcomp=0.60 / qpmin=0 / qpmax=69 / qpstep=4 / ip_ratio=1.40 / pb_ratio=1.30 / aq=1:1.00

Default : Yes

Forced : No

ENCODING_INFO : H264 > X264 ABR 3000kbps Super Fast



Audio

ID : 2

Format : AC-3

Format/Info : Audio Coding 3

Codec ID : A_AC3

Duration : 1 h 30 min

Bit rate mode : Constant

Bit rate : 256 kb/s

Channel(s) : 2 channels

Channel positions : Front: L R

Sampling rate : 48.0 kHz

Frame rate : 31.250 FPS (1536 SPF)

Bit depth : 16 bits

Compression mode : Lossy

Stream size : 166 MiB (8%)

Service kind : Complete Main

Default : Yes

Forced : No

ENCODING_INFO : AAC-LC > AC3 CBR 256kbps

Discussion

Comments 0

Post Your Comment

Files in this torrent

FILENAMESIZE
The.Wrong.Missy.2020.720p.LakeFilms.mkv2 GB

Alternative Torrents for 'Wrong Missy'.

TORRENT NAMEADDEDSIZESEEDSPEERSHEALTH
6/12/20201.5 GB00
6/4/20201.2 GB00
6/1/20204 GB00
5/31/20202 GB00
5/29/20205.9 GB00
5/28/20201.6 GB00
5/28/20204.4 GB00
5/28/20206.9 GB00
5/24/2020701 MB00
5/23/20202.2 GB00
5/22/20205.6 GB00
5/22/20203.2 GB00
5/20/20201.6 GB00
5/19/20203.8 GB00
5/18/20201.4 GB00