Malang 2020 X264 1080p Esub NetFLix Hindi 5 1 Sadeemrdp GOPI SAHI

Torrent Details

Malang 2020 x264 1080p Esub NetFLix Hindi 5 1 Sadeemrdp GOPI SAHI
Malang 2020 x264 1080p Esub NetFLix Hindi 5 1 Sadeemrdp GOPI SAHI

NAME
Malang 2020 x264 1080p Esub NetFLix Hindi 5 1 Sadeemrdp GOPI SAHI.torrent
CATEGORY
Movies
INFOHASH
44f5ceb8f2c52a21bc2fee71cd925afb405e11cb
SIZE
1.9 GB in 2 files
ADDED
Uploaded on 15-05-2020 by our crawler pet called "Spidey".
SWARM
0 seeders & 0 peers
RATING
No votes yet.

Please login to vote for this torrent.


Description

https://www.gopisahi.in/

Encoded And Uploded From Sadeemrdp



Format : Matroska

Format version : Version 4

File size : 1.92 GiB

Duration : 2 h 11 min

Overall bit rate : 2 091 kb/s

Movie name : Malang 2020 GOPI SAHI

Video

ID : 1

Format : AVC

Format/Info : Advanced Video Codec

Format profile : [email protected]

Format settings : CABAC / 4 Ref Frames

Format settings, CABAC : Yes

Format settings, Reference fra : 4 frames

Codec ID : V_MPEG4/ISO/AVC

Duration : 2 h 11 min

Bit rate : 1 898 kb/s

Width : 1 920 pixels

Height : 800 pixels

Display aspect ratio : 2.40:1

Frame rate mode : Constant

Frame rate : 24.000 FPS

Color space : YUV

Chroma subsampling : 4:2:0

Bit depth : 8 bits

Scan type : Progressive

Bits/(Pixel*Frame) : 0.051

Stream size : 1.74 GiB (91%)

Title : GOPI SAHI

Writing library : x264 core 157 r2935 545de2f


Audio

ID : 2

Format : AAC LC

Format/Info : Advanced Audio Codec Low Complexity

Codec ID : A_AAC-2

Duration : 2 h 11 min

Bit rate : 192 kb/s

Channel(s) : 6 channels

Channel layout : C L R Ls Rs LFE

Sampling rate : 48.0 kHz

Frame rate : 46.875 FPS (1024 SPF)

Compression mode : Lossy

Delay relative to video : -21 ms

Stream size : 180 MiB (9%)

Title : GOPI SAHI

Language : Hindi

Default : Yes

Forced : No


Text

ID : 3

Format : UTF-8

Codec ID : S_TEXT/UTF8

Codec ID/Info : UTF-8 Plain Text

Duration : 2 h 4 min

Bit rate : 43 b/s

Count of elements : 1291

Stream size : 39.9 KiB (0%)

Title : GOPI SAHI

Language : English

Default : Yes

Forced : No





Discussion

Comments 0

Post Your Comment

Files in this torrent

FILENAMESIZE
Encoded And Uploded From Sadeemrdp.txt128 B
Malang 2020 GOPI SAHI.mkv1.9 GB

Alternative Torrents for 'Malang Esub NetFLix Hindi Sadeemrdp GOPI SAHI'.

TORRENT NAMEADDEDSIZESEEDSPEERSHEALTH
5/16/2020937 MB00
5/15/20201.9 GB00