Capone 2020 AMZN WEB-DL P 1080p

Torrent Details

Capone 2020 AMZN WEB-DL P 1080p
Capone 2020 AMZN WEB-DL P 1080p

NAME
Capone 2020 AMZN WEB-DL P 1080p.torrent
CATEGORY
Movies
INFOHASH
9d320df64f7c0598e99138cf05617661f7e6e05a
SIZE
5.8 GB in 1 file
ADDED
Uploaded on 15-05-2020 by our crawler pet called "Spidey".
SWARM
0 seeders & 0 peers
RATING
No votes yet.

Please login to vote for this torrent.


Description

Информация о фильме

Название: Лицо со шрамом

Оригинальное название: Capone

Год выхода: 2020

Жанр: Драма, криминал, биография

Режиссер: Джош Транк

В ролях: Линда Карделлини, Том Харди, Ноэль Фишер, Кайл МакЛахлан, Мэтт Диллон, Кэтрин Нардуччи, Джек Лауден, Ал Сапиенза, Тильда Дель Торо, Уэйн Пер, Роуз Бьянко, Мэнни Фахардо, Эдгар Арреола, Дэвид Уочс, Тильда Дель Торо, Джош Транк



О фильме:

Вернувшись из тюрьмы, Аль Капоне продолжает оставаться предметом пристального внимания ФБР. Ведь при аресте так и не была найдена крупная сумма денег — итог всей криминальной деятельности знаменитого мафиози. По всему дому расставлены жучки, под подозрением каждый член большой семьи Капоне. Удастся ли спецслужбам добиться от теряющего память гангстера информации, где и при каких обстоятельствах он спрятал деньги?







Страна: Канада, США

Студия: BRON Studios, A Band Apart, Addictive Pictures

Продолжительность: 01:43:57

Перевод: Профессиональный многоголосый | HDRezka Studio

*** Присутствует ненормативная лексика!

Файл

Кодек: AVC

Качество: WEB-DL 1080p | AMZN

Видео: MPEG-4 AVC, 6835 Kбит/с, 1920x800, 23.976 кадр/с

Аудио #1: Русский (АС3, 6 ch, 448 Кбит/с, 48.0 KHz) Профессиональный (многоголосый, закадровый) HDRezka Studio

Аудио #2: Английский (АС3, 6 ch, 640 Кбит/с, 48.0 KHz)

Субтитры: Русские (Forced), английские

► Без Рекламы!

Трейлер

MediaInfo Источник: Capone.2020.1080p.AMZN.WEB-DL.DDP5.1.H.264-NTG

General

Unique ID : 236675990080190375050463802701608057693 (0xB20E233C75B62D0E831EE770D71EFB5D)

Complete name : Capone.2020.AMZN.WEB-DL.1080p.mkv

Format : Matroska

Format version : Version 4

File size : 5.75 GiB

Duration : 1 h 43 min

Overall bit rate : 7 925 kb/s

Encoded date : UTC 2020-05-15 09:39:24

Writing application : mkvmerge v7.1.0 ('Good Love') 64bit built on Jul 27 2014 13:06:55

Writing library : libebml v1.3.0 + libmatroska v1.4.1



Video

ID : 1

Format : AVC

Format/Info : Advanced Video Codec

Format profile : [email protected]

Format settings : CABAC / 4 Ref Frames

Format settings, CABAC : Yes

Format settings, Reference fra : 4 frames

Codec ID : V_MPEG4/ISO/AVC

Duration : 1 h 43 min

Bit rate mode : Constant

Bit rate : 6 835 kb/s

Nominal bit rate : 10 000 kb/s

Width : 1 920 pixels

Height : 800 pixels

Display aspect ratio : 2.40:1

Frame rate mode : Constant

Frame rate : 23.976 (24000/1001) FPS

Color space : YUV

Chroma subsampling : 4:2:0

Bit depth : 8 bits

Scan type : Progressive

Bits/(Pixel*Frame) : 0.186

Stream size : 4.96 GiB (86%)

Language : English

Default : Yes

Forced : No

Color range : Limited

Color primaries : BT.709

Transfer characteristics : BT.709

Matrix coefficients : BT.709



Audio #1

ID : 2

Format : AC-3

Format/Info : Audio Coding 3

Commercial name : Dolby Digital

Codec ID : A_AC3

Duration : 1 h 43 min

Bit rate mode : Constant

Bit rate : 448 kb/s

Channel(s) : 6 channels

Channel layout : L R C LFE Ls Rs

Sampling rate : 48.0 kHz

Frame rate : 31.250 FPS (1536 SPF)

Compression mode : Lossy

Stream size : 333 MiB (6%)

Title : MVO | HDRezka Studio

Language : Russian

Service kind : Complete Main

Default : Yes

Forced : No



Audio #2

ID : 3

Format : AC-3

Format/Info : Audio Coding 3

Commercial name : Dolby Digital

Codec ID : A_AC3

Duration : 1 h 43 min

Bit rate mode : Constant

Bit rate : 640 kb/s

Channel(s) : 6 channels

Channel layout : L R C LFE Ls Rs

Sampling rate : 48.0 kHz

Frame rate : 31.250 FPS (1536 SPF)

Compression mode : Lossy

Stream size : 476 MiB (8%)

Language : English

Service kind : Complete Main

Default : No

Forced : No



Text #1

ID : 4

Format : UTF-8

Codec ID : S_TEXT/UTF8

Codec ID/Info : UTF-8 Plain Text

Duration : 1 h 38 min

Bit rate : 2 b/s

Count of elements : 40

Stream size : 1.72 KiB (0%)

Title : Forced

Language : Russian

Default : Yes

Forced : No



Text #2

ID : 5

Format : UTF-8

Codec ID : S_TEXT/UTF8

Codec ID/Info : UTF-8 Plain Text

Duration : 1 h 33 min

Bit rate : 39 b/s

Count of elements : 1182

Stream size : 27.1 KiB (0%)

Language : English

Default : No

Forced : No



Text #3

ID : 6

Format : UTF-8

Codec ID : S_TEXT/UTF8

Codec ID/Info : UTF-8 Plain Text

Duration : 1 h 35 min

Bit rate : 42 b/s

Count of elements : 1402

Stream size : 29.9 KiB (0%)

Title : SDH

Language : English

Default : No

Forced : No

Скриншоты

Discussion

Comments 0

Post Your Comment

Files in this torrent

FILENAMESIZE
Capone.2020.AMZN.WEB-DL.P.1080p.mkv5.8 GB

Alternative Torrents for 'Capone'.

TORRENT NAMEADDEDSIZESEEDSPEERSHEALTH
6/15/2020191 MB21
6/8/2020734 MB00
6/7/20201 GB00
6/7/20201.3 GB00
6/5/2020952 MB00
6/4/2020708 MB00
6/4/20204.7 GB00
6/4/20204.3 GB00
6/4/20203.3 GB00
5/30/20202.3 GB00
5/30/20203.1 GB00
5/30/20202.1 GB00
5/29/20202.1 GB00
5/29/20202 GB00
5/29/2020747 MB00