The Invisible Man 2020 BDRip 720p SeleZen

Torrent Details

The Invisible Man 2020 BDRip 720p<span style=color:#fc9c6d> seleZen</span>
The Invisible Man 2020 BDRip 720p<span style=color:#fc9c6d> seleZen</span>

NAME
The Invisible Man 2020 BDRip 720p seleZen.torrent
CATEGORY
Movies
INFOHASH
65005ab7c7c77c66717032e4f350df4128c855d2
SIZE
5.2 GB in 1 file
ADDED
Uploaded on 15-05-2020 by our crawler pet called "Spidey".
SWARM
0 seeders & 0 peers
RATING
No votes yet.

Please login to vote for this torrent.


Description

Информация о фильме

Название: Человек-невидимка

Оригинальное название: The Invisible Man

Год выхода: 2020

Жанр: Ужасы, фантастика, триллер, детектив

Режиссер: Ли Уоннелл

В ролях: Элизабет Мосс, Оливер Джексон-Коэн, Харриет Дайер, Элдис Ходж, Сторм Рейд, Майкл Дорман, Бенедикт Харди, Рени Лим, Брайан Миган, Ник Кичи







О фильме: На первый взгляд жизнь Сесилии кажется безупречной: огромный дом, бойфренд - гениальный ученый-миллионер. Но никто не знает, что на самом деле происходит за высокими стенами роскошного особняка... И даже идеально спланированный побег оказывается ловушкой. Невозможно спрятаться от преследователя, которого не видишь.



Страна: Австралия, США, Канада, Великобритания

Студия: Goalpost Pictures, Blumhouse Productions, Dark Universe

Продолжительность: 02:04:23

Перевод: Дублированный | iTunes



Качество: BDRip 720p

Видео: MPEG-4 AVC, 1280x536, 5165 Kbit/s, 23.976 fps

Аудио #01: 48 kHz, AC3, 5.1, 384 Kbps | iTunes | RUS |

Аудио #02: 48 kHz, AC3, 5.1, 448 Kbps | Оригинал | ENG |

Субтитры: Русские (Forced, full), английские







MIGeneral

Unique ID : 55825067133415245057483293959965846699 (0x29FF844FE2E050AC9049A67F613F2CAB)

Complete name : E:Video111The.Invisible.Man.2020.BDRip.720p.seleZen.mkv

Format : Matroska

Format version : Version 4

File size : 5.21 GiB

Duration : 2 h 4 min

Overall bit rate : 5 997 kb/s

Movie name : The Invisible Man 2020 from селезень

Encoded date : UTC 2020-05-15 11:49:49

Writing application : mkvmerge v40.0.0 ('Old Town Road + Pony') 64-bit

Writing library : libebml v1.3.9 + libmatroska v1.5.2



Video

ID : 1

Format : AVC

Format/Info : Advanced Video Codec

Format profile : [email protected]

Format settings : CABAC / 12 Ref Frames

Format settings, CABAC : Yes

Format settings, Reference : 12 frames

Codec ID : V_MPEG4/ISO/AVC

Duration : 2 h 4 min

Bit rate : 5 165 kb/s

Width : 1 280 pixels

Height : 536 pixels

Display aspect ratio : 2.40:1

Frame rate mode : Constant

Frame rate : 23.976 (24000/1001) FPS

Color space : YUV

Chroma subsampling : 4:2:0

Bit depth : 8 bits

Scan type : Progressive

Bits/(Pixel*Frame) : 0.314

Stream size : 4.49 GiB (86%)

Title : Encoded by seleZen

Writing library : x264 core 142 r2431+42 c69a006 tMod [[email protected] X86_64]

Encoding settings : cabac=1 / ref=12 / deblock=1:-2:-2 / analyse=0x3:0x133 / me=umh / subme=10 / psy=1 / fade_compensate=0.00 / psy_rd=1.00:0.00 / mixed_ref=1 / me_range=32 / chroma_me=1 / trellis=2 / 8x8dct=1 / cqm=0 / deadzone=21,11 / fast_pskip=0 / chroma_qp_offset=-2 / threads=24 / lookahead_threads=4 / sliced_threads=0 / nr=0 / decimate=0 / interlaced=0 / bluray_compat=0 / constrained_intra=0 / fgo=0 / bframes=8 / b_pyramid=2 / b_adapt=2 / b_bias=0 / direct=3 / weightb=1 / open_gop=0 / weightp=2 / keyint=240 / keyint_min=23 / scenecut=40 / intra_refresh=0 / rc_lookahead=50 / rc=2pass / mbtree=0 / bitrate=5165 / ratetol=1.0 / qcomp=0.60 / qpmin=0:0:0 / qpmax=51:51:51 / qpstep=4 / cplxblur=20.0 / qblur=0.5 / vbv_maxrate=50000 / vbv_bufsize=62500 / nal_hrd=none / filler=0 / ip_ratio=1.40 / pb_ratio=1.30 / aq=3:0.80 / aq-sensitivity=10.00 / aq-factor=1.00:1.00:1.00 / aq2=0 / aq3=0

Language : English

Default : Yes

Forced : No



Audio #1

ID : 2

Format : AC-3

Format/Info : Audio Coding 3

Commercial name : Dolby Digital

Codec ID : A_AC3

Duration : 2 h 4 min

Bit rate mode : Constant

Bit rate : 384 kb/s

Channel(s) : 6 channels

Channel layout : L R C LFE Ls Rs

Sampling rate : 48.0 kHz

Frame rate : 31.250 FPS (1536 SPF)

Compression mode : Lossy

Stream size : 342 MiB (6%)

Title : Dub [iTunes]

Language : Russian

Service kind : Complete Main

Default : Yes

Forced : Yes



Audio #2

ID : 3

Format : AC-3

Format/Info : Audio Coding 3

Commercial name : Dolby Digital

Codec ID : A_AC3

Duration : 2 h 4 min

Bit rate mode : Constant

Bit rate : 448 kb/s

Channel(s) : 6 channels

Channel layout : L R C LFE Ls Rs

Sampling rate : 48.0 kHz

Frame rate : 31.250 FPS (1536 SPF)

Compression mode : Lossy

Stream size : 399 MiB (7%)

Title : Original

Language : English

Service kind : Complete Main

Default : No

Forced : No



Text #1

ID : 4

Format : UTF-8

Codec ID : S_TEXT/UTF8

Codec ID/Info : UTF-8 Plain Text

Duration : 1 h 45 min

Bit rate : 0 b/s

Count of elements : 12

Stream size : 587 Bytes (0%)

Title : Forced

Language : Russian

Default : Yes

Forced : Yes



Text #2

ID : 5

Format : UTF-8

Codec ID : S_TEXT/UTF8

Codec ID/Info : UTF-8 Plain Text

Duration : 1 h 53 min

Bit rate : 48 b/s

Count of elements : 958

Stream size : 40.6 KiB (0%)

Title : Full [Mallorn]

Language : Russian

Default : No

Forced : No



Text #3

ID : 6

Format : UTF-8

Codec ID : S_TEXT/UTF8

Codec ID/Info : UTF-8 Plain Text

Duration : 1 h 49 min

Bit rate : 33 b/s

Count of elements : 965

Stream size : 26.8 KiB (0%)

Title : Full

Language : English

Default : No

Forced : No



Text #4

ID : 7

Format : UTF-8

Codec ID : S_TEXT/UTF8

Codec ID/Info : UTF-8 Plain Text

Duration : 2 h 4 min

Bit rate : 43 b/s

Count of elements : 1416

Stream size : 39.3 KiB (0%)

Title : SDH

Language : English

Default : No

Forced : No



Menu

00:00:00.000 : en:

00:11:05.748 : en:

00:16:09.135 : en:

00:19:16.322 : en:

00:25:27.651 : en:

00:35:52.233 : en:

00:39:50.179 : en:

00:46:35.459 : en:

00:52:41.867 : en:

01:01:22.012 : en:

01:08:59.802 : en:

01:14:49.735 : en:

01:19:23.926 : en:

01:24:46.540 : en:

01:30:25.337 : en:

01:35:24.928 : en:

01:39:33.342 : en:

01:43:04.220 : en:

01:48:54.695 : en:

01:53:38.812 : en:



Релиз от:



Discussion

Comments 0

Post Your Comment

Files in this torrent

FILENAMESIZE
The.Invisible.Man.2020.BDRip.720p.seleZen.mkv5.2 GB

Alternative Torrents for 'Invisible Man'.

TORRENT NAMEADDEDSIZESEEDSPEERSHEALTH
7/7/20202 GB1205
7/11/20202 GB742
Today1.4 GB102
7/7/202030 GB47
6/28/202088.9 GB00
6/27/2020783 MB00
6/25/202041.5 GB00
6/25/2020748 MB00
6/25/20201.5 GB00
6/25/20202.9 GB00
6/25/202011.1 GB00
6/24/20202.5 GB00
6/23/20202.7 GB00
6/22/20204.9 GB00
6/22/20204.7 GB00