The Invisible Man 2020 IT BDRip 2.84GB X264

Torrent Details

The Invisible Man 2020 iT BDRip 2.84GB x264
The Invisible Man 2020 iT BDRip 2.84GB x264

NAME
The Invisible Man 2020 iT BDRip 2.84GB x264.torrent
CATEGORY
Movies
INFOHASH
2e9ebbe06c1169422056707871a4356ddabac4c4
SIZE
2.8 GB in 1 file
ADDED
Uploaded on 15-05-2020 by our crawler pet called "Spidey".
SWARM
0 seeders & 0 peers
RATING
No votes yet.

Please login to vote for this torrent.


Description

«Невидимое таит опасность»



Информация о фильме

Название: Человек-невидимка

Оригинальное название: The Invisible Man

Год выхода: 2020

Жанр: Ужасы, фантастика, триллер, детектив

Режиссер: Ли Уоннелл

В ролях: Элизабет Мосс, Оливер Джексон-Коэн, Харриет Дайер, Элдис Ходж, Сторм Рейд, Майкл Дорман, Бенедикт Харди, Рени Лим, Брайан Миган, Ник Кичи



О фильме:

Под покровом ночи Сесилия бежит из высокотехнологичного дома своего бойфренда Адриана, усыпив его снотворным и отключив системы наблюдения и сигнализацию. Теперь девушка живёт у друга, боится выходить на улицу и страдает от мании преследования, когда узнает, что её бывший мучитель покончил с собой. Адриан, лидер рынка оптических разработок, оставил Сесилии большое наследство, и, наконец-то, жизнь девушки должна наладиться. Но вскоре она вновь начинает чувствовать тревогу, как будто Адриан незаметно к ней подкрадывается — ведь невозможно спрятаться от преследователя, которого не видишь.







Страна: Австралия, США, Канада, Великобритания

Студия: Blumhouse Productions, Dark Universe, Goalpost Pictures, Universal Pictures

Продолжительность: 02:04:23

Перевод:

• Профессиональный (полное дублирование) | iTunes



Файл

Качество: BDRip-AVC

Исходник: The.Invisible.Man.2020.1080p.BluRay.Remux.AVC.Atmos-PmP

Формат: MKV

Кодек: MPEG-4 AVC

Видео: 1024x428 (2,40:1), 23,976 fps, MPEG-4 AVC ~ 2437 Kbps avg, 0.232 bit/pixel

Аудио: AC3, 48 kHz, 6 ch, ~384.00 kbps avg | русский | iTunes

Аудио: AC3, 48 kHz, 6 ch, ~448.00 kbps avg | английский |

Субтитры: Русские (Forced, full), английские (Full, SDH)





Инфо-файлОбщее

Уникальный идентификатор : 190754759625280017947563022678241434193 (0x8F8207C5A6C4AD56A6FD724ED09DDA51)

Полное имя : The.Invisible.Man.2020.iT.BDRip.2.84Gb.x264.mkv

Формат : Matroska

Версия формата : Version 4

Размер файла : 2,84 Гбайт

Продолжительность : 2 ч. 4 м.

Общий поток : 3271 Кбит/сек

Название фильма : Человек-невидимка / The Invisible Man (2020)

Дата кодирования : UTC 2020-05-15 13:52:51

Программа кодирования : mkvmerge v46.0.0 ('No Deeper Escape') 64-bit

Библиотека кодирования : libebml v1.3.10 + libmatroska v1.5.2

Обложка : Yes

Attachments : cover.jpg



Видео

Идентификатор : 1

Формат : AVC

Формат/Информация : Advanced Video Codec

Профиль формата : [email protected]

Настройки формата : CABAC / 10 Ref Frames

Параметр CABAC формата : Да

Параметр RefFrames формата : 10 кадров

Идентификатор кодека : V_MPEG4/ISO/AVC

Продолжительность : 2 ч. 4 м.

Битрейт : 2437 Кбит/сек

Ширина : 1024 пикселя

Высота : 428 пикселей

Соотношение сторон : 2,40:1

Режим частоты кадров : Постоянный

Частота кадров : 23,976 кадра/сек

Цветовое пространство : YUV

Субдискретизация насыщенности : 4:2:0

Битовая глубина : 8 бит

Тип развёртки : Прогрессивная

Бит/(Пиксели*Кадры) : 0.232

Размер потока : 2,12 Гбайт (75%)

Заголовок : #stillet

Библиотека кодирования : x264 core 152 r2851bm ba24899

Настройки программы : cabac=1 / ref=10 / deblock=1:-3:-3 / analyse=0x3:0x113 / me=umh / subme=11 / psy=1 / psy_rd=1.00:0.15 / mixed_ref=1 / me_range=32 / chroma_me=1 / trellis=2 / 8x8dct=1 / cqm=0 / deadzone=21,11 / fast_pskip=0 / chroma_qp_offset=-3 / threads=8 / lookahead_threads=3 / sliced_threads=0 / nr=0 / decimate=0 / interlaced=0 / bluray_compat=0 / constrained_intra=0 / bframes=12 / b_pyramid=2 / b_adapt=2 / b_bias=0 / direct=3 / weightb=1 / open_gop=0 / weightp=2 / keyint=240 / keyint_min=23 / scenecut=40 / intra_refresh=0 / rc=2pass / mbtree=0 / bitrate=2437 / ratetol=1.0 / qcomp=0.60 / qpmin=0 / qpmax=69 / qpstep=4 / cplxblur=20.0 / qblur=0.5 / ip_ratio=1.40 / pb_ratio=1.30 / aq=1:1.00

Язык : English

Default : Да

Forced : Нет



Аудио #1

Идентификатор : 2

Формат : AC-3

Формат/Информация : Audio Coding 3

Коммерческое название : Dolby Digital

Идентификатор кодека : A_AC3

Продолжительность : 2 ч. 4 м.

Вид битрейта : Постоянный

Битрейт : 384 Кбит/сек

Каналы : 6 каналов

ChannelLayout : L R C LFE Ls Rs

Частота : 48,0 КГц

Частота кадров : 31,250 кадров/сек (1536 SPF)

Метод сжатия : С потерями

Размер потока : 342 Мбайт (12%)

Заголовок : iTunes

Язык : Russian

Default : Да

Forced : Да



Аудио #2

Идентификатор : 3

Формат : AC-3

Формат/Информация : Audio Coding 3

Коммерческое название : Dolby Digital

Идентификатор кодека : A_AC3

Продолжительность : 2 ч. 4 м.

Вид битрейта : Постоянный

Битрейт : 448 Кбит/сек

Каналы : 6 каналов

ChannelLayout : L R C LFE Ls Rs

Частота : 48,0 КГц

Частота кадров : 31,250 кадров/сек (1536 SPF)

Метод сжатия : С потерями

Размер потока : 399 Мбайт (14%)

Заголовок : Original

Язык : English

Default : Нет

Forced : Нет



Текст #1

Идентификатор : 4

Формат : UTF-8

Идентификатор кодека : S_TEXT/UTF8

Идентификатор кодека/Информация : UTF-8 Plain Text

Продолжительность : 1 ч. 45 м.

Битрейт : 0 бит/сек

ElementCount : 12

Размер потока : 587 байт (0%)

Заголовок : Forced

Язык : Russian

Default : Да

Forced : Да



Текст #2

Идентификатор : 5

Формат : UTF-8

Идентификатор кодека : S_TEXT/UTF8

Идентификатор кодека/Информация : UTF-8 Plain Text

Продолжительность : 1 ч. 53 м.

Битрейт : 48 бит/сек

ElementCount : 958

Размер потока : 40,6 Кбайт (0%)

Заголовок : Full [Mallorn]

Язык : Russian

Default : Нет

Forced : Нет



Текст #3

Идентификатор : 6

Формат : UTF-8

Идентификатор кодека : S_TEXT/UTF8

Идентификатор кодека/Информация : UTF-8 Plain Text

Продолжительность : 1 ч. 49 м.

Битрейт : 33 бит/сек

ElementCount : 965

Размер потока : 26,8 Кбайт (0%)

Заголовок : Full

Язык : English

Default : Нет

Forced : Нет



Текст #4

Идентификатор : 7

Формат : UTF-8

Идентификатор кодека : S_TEXT/UTF8

Идентификатор кодека/Информация : UTF-8 Plain Text

Продолжительность : 2 ч. 4 м.

Битрейт : 43 бит/сек

ElementCount : 1416

Размер потока : 39,3 Кбайт (0%)

Заголовок : SDH

Язык : English

Default : Нет

Forced : Нет



Меню

00:00:00.000 : en:

00:11:05.748 : en:

00:16:09.135 : en:

00:19:16.322 : en:

00:25:27.651 : en:

00:35:52.233 : en:

00:39:50.179 : en:

00:46:35.459 : en:

00:52:41.867 : en:

01:01:22.012 : en:

01:08:59.802 : en:

01:14:49.735 : en:

01:19:23.926 : en:

01:24:46.540 : en:

01:30:25.337 : en:

01:35:24.928 : en:

01:39:33.342 : en:

01:43:04.220 : en:

01:48:54.695 : en:

01:53:38.812 : en:Скриншоты

Discussion

Comments 0

Post Your Comment

Files in this torrent

FILENAMESIZE
The.Invisible.Man.2020.iT.BDRip.2.84Gb.x264.mkv2.8 GB

Alternative Torrents for 'Invisible Man iT'.

TORRENT NAMEADDEDSIZESEEDSPEERSHEALTH
5/15/20201.5 GB00
5/15/20202.8 GB00