The Wrong Missy (2020) 720p NF WEBRip [English + French] - X264 AAC 850MB - MovCr

Torrent Details

 The Wrong Missy (2020) 720p NF WEBRip [English + French] - x264 AAC 850MB <span style=color:#fc9c6d>- MovCr</span>
 The Wrong Missy (2020) 720p NF WEBRip [English + French] - x264 AAC 850MB <span style=color:#fc9c6d>- MovCr</span>

NAME
The Wrong Missy (2020) 720p NF WEBRip [English + French] - x264 AAC 850MB - MovCr.torrent
CATEGORY
Movies
INFOHASH
14e1789affea57e82fb40946bda3f7074d27afcc
SIZE
863 MB in 1 file
ADDED
Uploaded on 16-05-2020 by our crawler pet called "Spidey".
SWARM
0 seeders & 0 peers
RATING
No votes yet.

Please login to vote for this torrent.


Description

https://MovCr.to















The Wrong Missy (2020) 720p NF WEBRip [English + French] - x264 AAC HC-ESubs 850MB - MovCr









IMDB Link : https://www.imdb.com/title/tt9619798/



Plot :



Tim thinks he's invited the woman of his dreams on a work retreat to Hawaii, realizing too late he mistakenly texted someone from a nightmare blind date.









Video

ID                                       : 1

Format                                   : AVC

Format/Info                              : Advanced Video Codec

Format profile                           : [email protected]

Format settings                          : CABAC / 2 Ref Frames

Format settings, CABAC                   : Yes

Format settings, Reference frames        : 2 frames

Codec ID                                 : V_MPEG4/ISO/AVC

Duration                                 : 1 h 30 min

Bit rate                                 : 1 139 kb/s

Width                                    : 1 280 pixels

Height                                   : 544 pixels

Display aspect ratio                     : 2.35:1

Frame rate mode                          : Constant

Frame rate                               : 24.000 FPS

Color space                              : YUV

Chroma subsampling                       : 4:2:0

Bit depth                                : 8 bits

Scan type                                : Progressive

Bits/(Pixel*Frame)                       : 0.068

Stream size                              : 734 MiB (85%)

Title                                    : www.MovCr.to

Default                                  : Yes

Forced                                   : No



Audio #1

ID                                       : 2

Format                                   : AAC LC

Format/Info                              : Advanced Audio Codec Low Complexity

Codec ID                                 : A_AAC-2

Duration                                 : 1 h 30 min

Bit rate                                 : 98.8 kb/s

Channel(s)                               : 2 channels

Channel layout                           : L R

Sampling rate                            : 48.0 kHz

Frame rate                               : 46.875 FPS (1024 SPF)

Compression mode                         : Lossy

Stream size                              : 63.6 MiB (7%)

Title                                    : www.MovCr.to

Language                                 : English

Default                                  : Yes

Forced                                   : No



Audio #2

ID                                       : 3

Format                                   : AAC LC

Format/Info                              : Advanced Audio Codec Low Complexity

Codec ID                                 : A_AAC-2

Duration                                 : 1 h 30 min

Bit rate                                 : 98.9 kb/s

Channel(s)                               : 2 channels

Channel layout                           : L R

Sampling rate                            : 48.0 kHz

Frame rate                               : 46.875 FPS (1024 SPF)

Compression mode                         : Lossy

Stream size                              : 63.7 MiB (7%)

Title                                    : www.MovCr.to

Language                                 : French

Default                                  : No

Forced                                   : No























Discussion

Comments 0

Post Your Comment

Files in this torrent

FILENAMESIZE
www.MovCr.to - The Wrong Missy (2020) 720p NF WEBRip [English + French] - x264 AAC 850MB - MovCr.mkv863 MB

Alternative Torrents for 'Wrong Missy NF English French AAC MB'.

TORRENT NAMEADDEDSIZESEEDSPEERSHEALTH
Yesterday248 MB29632616
6/27/20203.5 GB10641357
6/27/2020349 MB1059121
6/27/20202.4 GB9491514
6/24/2020785 MB938292
6/18/20201.7 GB872211
6/15/2020695 MB87136
6/18/2020660 MB688247
6/23/20202.6 GB664457
6/26/2020695 MB57923
Yesterday696 MB54930
6/22/2020696 MB53823
6/23/2020695 MB53023
6/18/20202.6 GB509170
6/26/2020796 MB476123