Avengers Endgame (2019) 1080p BluRay X264 ESub By~Hammer~

Torrent Details


Avengers Endgame (2019) 1080p BluRay x264   ESub By~Hammer~

NAME
Avengers Endgame (2019) 1080p BluRay x264 ESub By~Hammer~.torrent
CATEGORY
Movies
INFOHASH
14aa72d636c169f7156ab906803b1207706801dd
SIZE
8 GB in 1 file
ADDED
Uploaded on 17-05-2020 by our crawler pet called "Spidey".
SWARM
0 seeders & 0 peers
RATING
No votes yet.

Please login to vote for this torrent.


Description

Avengers Endgame (2019) 1080p BluRay x264 {Multi Audio} {Hindi-Tam-Tel DD 2.0-English BD 5.1} ESub By~Hammer~





Stay Home Stay Safe From Coronavirus

General
Format : Matroska
Format version : Version 4 / Version 2
File size : 8.04 GiB
Duration : 3 h 2 min
Overall bit rate : 6 319 kb/s
Movie name : Avengers Endgame (2019) 1080p BluRay x264 {Multi Audio} {Hindi-Tam-Tel DD 2.0-English BD 5.1} ESub By~Hammer~
Bit rate : 5 000 kb/s
Width : 1 920 pixels
Height : 800 pixels
Display aspect ratio : 2.40:1
Frame rate mode : Constant
Frame rate : 23.976 (24000/1001) FPS
Title : ~EncodeR~Hammer~
Language : English
Default : Yes
Forced : No

Audio #1
Format : AC-3
Format/Info : Audio Coding 3
Codec ID : A_AC3
Duration : 3 h 2 min
Bit rate mode : Constant
Bit rate : 224 kb/s
Channel(s) : 2 channels
Channel positions : Front: L R
Sampling rate : 48.0 kHz
Frame rate : 31.250 FPS (1536 SPF)
Bit depth : 16 bits
Compression mode : Lossy
Stream size : 292 MiB (4%)
Title : Hindi Org DD 2.0 224 kbps By~Hammer~
Language : Hindi
Default : Yes
Forced : Yes

Audio #2
Format : AC-3
Format/Info : Audio Coding 3
Codec ID : A_AC3
Duration : 3 h 2 min
Bit rate mode : Constant
Bit rate : 224 kb/s
Channel(s) : 2 channels
Channel positions : Front: L R
Sampling rate : 48.0 kHz
Frame rate : 31.250 FPS (1536 SPF)
Bit depth : 16 bits
Compression mode : Lossy
Stream size : 292 MiB (4%)
Title : Tamil Org DD 2.0 224 kbps By~Hammer~
Language : Tamil
Default : No
Forced : No

Audio #3
Format : AC-3
Format/Info : Audio Coding 3
Codec ID : A_AC3
Duration : 3 h 2 min
Bit rate mode : Constant
Bit rate : 224 kb/s
Channel(s) : 2 channels
Channel positions : Front: L R
Sampling rate : 48.0 kHz
Frame rate : 31.250 FPS (1536 SPF)
Bit depth : 16 bits
Compression mode : Lossy
Stream size : 292 MiB (4%)
Title : Telugu Org DD 2.0 224 kbps By~Hammer~
Language : Telugu
Default : No
Forced : No

Audio #4
Format : AC-3
Format/Info : Audio Coding 3
Codec ID : A_AC3
Duration : 3 h 1 min
Bit rate mode : Constant
Bit rate : 640 kb/s
Channel(s) : 6 channels
Channel positions : Front: L C R, Side: L R, LFE
Sampling rate : 48.0 kHz
Frame rate : 31.250 FPS (1536 SPF)
Bit depth : 16 bits
Compression mode : Lossy
Stream size : 829 MiB (10%)
Title : English BD 5.1 640 kbps By~Hammer~
Language : English
Default : No
Forced : No

Text #1
Format : PGS
Muxing mode : zlib
Codec ID : S_HDMV/PGS
Codec ID/Info : Picture based subtitle format used on BDs/HD-DVDs
Duration : 3 h 0 min
Bit rate : 22.4 kb/s
Count of elements : 6520
Stream size : 29.0 MiB (0%)
Title : English PGS
Language : English
Default : Yes
Forced : No

Text #2
Format : PGS
Muxing mode : zlib
Codec ID : S_HDMV/PGS
Codec ID/Info : Picture based subtitle format used on BDs/HD-DVDs
Duration : 3 h 0 min
Bit rate : 11.1 kb/s
Count of elements : 5266
Stream size : 14.4 MiB (0%)
Title : English PGS
Language : English
Default : No
Forced : No















Discussion

Comments 0

Post Your Comment

Files in this torrent

FILENAMESIZE
Avengers Endgame (2019) 1080p BluRay x264 {Multi Audio} {Hindi-Tam-Tel DD 2.0-English BD 5.1} ESub By~Hammer~.mkv8 GB

Alternative Torrents for 'Avengers Endgame BluRay ESub ByHammer'.

TORRENT NAMEADDEDSIZESEEDSPEERSHEALTH
12/4/20202.8 GB3670848
12/29/20201.9 GB2721337
12/5/20201.8 GB1647475
12/4/20201.3 GB1434232
12/5/2020903 MB1051350
1/14/20211009 MB833230
1/14/20212 GB783158
12/24/20201.9 GB70331
1/12/2021942 MB60287
1/14/20211.7 GB542225
1/9/20211.8 GB515196
12/25/2020958 MB49348
1/8/2021994 MB47373
12/11/20207.3 GB457485
12/5/20209.2 GB434147