The Invisible Man 2020 BDREMUX 2160p HDR SeleZen

Torrent Details

The Invisible Man 2020 BDREMUX 2160p HDR<span style=color:#fc9c6d> seleZen</span>
The Invisible Man 2020 BDREMUX 2160p HDR<span style=color:#fc9c6d> seleZen</span>

NAME
The Invisible Man 2020 BDREMUX 2160p HDR seleZen.torrent
CATEGORY
Movies
INFOHASH
21d1aa85f3c62fa15180b7f6a32d49592421289a
SIZE
56.7 GB in 1 file
ADDED
Uploaded on 17-05-2020 by our crawler pet called "Spidey".
SWARM
0 seeders & 0 peers
RATING
No votes yet.

Please login to vote for this torrent.


Description

Информация о фильме

Название: Человек-невидимка

Оригинальное название: The Invisible Man

Год выхода: 2020

Жанр: Ужасы, фантастика, триллер, детектив

Режиссер: Ли Уоннелл

В ролях: Элизабет Мосс, Оливер Джексон-Коэн, Харриет Дайер, Элдис Ходж, Сторм Рейд, Майкл Дорман, Бенедикт Харди, Рени Лим, Брайан Миган, Ник Кичи







О фильме: На первый взгляд жизнь Сесилии кажется безупречной: огромный дом, бойфренд - гениальный ученый-миллионер. Но никто не знает, что на самом деле происходит за высокими стенами роскошного особняка... И даже идеально спланированный побег оказывается ловушкой. Невозможно спрятаться от преследователя, которого не видишь.



Страна: Австралия, США, Канада, Великобритания

Студия: Goalpost Pictures, Blumhouse Productions, Dark Universe

Продолжительность: 02:04:23

Перевод(ы):

#1: Дублированный | iTunes

Профессиональный многоголосый | HDRezka Studio



Качество: BDRemux 2160p

Видео: 3840x2160 at 23.976 fps, MPEG-H HEVC HDR Video, 60800 kbps avg

Аудио #01: 48 kHz, AC3, 5.1, 384 Kbps | iTunes | RUS |

Аудио #02: 48 kHz, AC3, 5.1, 448 Kbps | HDRezka Studio | RUS |

Аудио #03: 48 kHz, TrueHD, 7.1, 3050 Kbps | Оригинал | ENG |

Аудио #04: 48 kHz, AC3, 5.1, 448 Kbps | Оригинал | ENG |

Субтитры: Русские (Forced, full), английские







MIGeneral

Unique ID : 58098653179153105449058783744331185812 (0x2BB564C23975C644D67575569E717E94)

Complete name : E:Video111The.Invisible.Man.2020.BDREMUX.2160p.HDR.seleZen.mkv

Format : Matroska

Format version : Version 4

File size : 56.7 GiB

Duration : 2 h 4 min

Overall bit rate mode : Variable

Overall bit rate : 65.2 Mb/s

Movie name : The Invisible Man 2020 from селезень

Encoded date : UTC 2020-05-17 14:42:17

Writing application : mkvmerge v40.0.0 ('Old Town Road + Pony') 64-bit

Writing library : libebml v1.3.9 + libmatroska v1.5.2



Video

ID : 1

Format : HEVC

Format/Info : High Efficiency Video Coding

Format profile : Main [email protected]@High

HDR format : SMPTE ST 2094 App 4, Version 1, HDR10+ Profile B compatible

Codec ID : V_MPEGH/ISO/HEVC

Duration : 2 h 4 min

Bit rate : 60.8 Mb/s

Width : 3 840 pixels

Height : 2 160 pixels

Display aspect ratio : 16:9

Frame rate mode : Constant

Frame rate : 23.976 (24000/1001) FPS

Color space : YUV

Chroma subsampling : 4:2:0 (Type 2)

Bit depth : 10 bits

Bits/(Pixel*Frame) : 0.306

Stream size : 52.8 GiB (93%)

Language : English

Default : Yes

Forced : No

Color range : Limited

Color primaries : BT.2020

Transfer characteristics : PQ

Matrix coefficients : BT.2020 non-constant

Mastering display color pri : Display P3

Mastering display luminance : min: 0.0001 cd/m2, max: 1000 cd/m2

Maximum Content Light Level : 249 cd/m2

Maximum Frame-Average Light : 37 cd/m2



Audio #1

ID : 2

Format : AC-3

Format/Info : Audio Coding 3

Commercial name : Dolby Digital

Codec ID : A_AC3

Duration : 2 h 4 min

Bit rate mode : Constant

Bit rate : 384 kb/s

Channel(s) : 6 channels

Channel layout : L R C LFE Ls Rs

Sampling rate : 48.0 kHz

Frame rate : 31.250 FPS (1536 SPF)

Compression mode : Lossy

Stream size : 342 MiB (1%)

Title : Dub [iTunes]

Language : Russian

Service kind : Complete Main

Default : Yes

Forced : Yes



Audio #2

ID : 3

Format : AC-3

Format/Info : Audio Coding 3

Commercial name : Dolby Digital

Codec ID : A_AC3

Duration : 2 h 4 min

Bit rate mode : Constant

Bit rate : 448 kb/s

Channel(s) : 6 channels

Channel layout : L R C LFE Ls Rs

Sampling rate : 48.0 kHz

Frame rate : 31.250 FPS (1536 SPF)

Compression mode : Lossy

Stream size : 399 MiB (1%)

Title : MVO [HDRezka Studio]

Language : Russian

Service kind : Complete Main

Default : No

Forced : No



Audio #3

ID : 4

Format : MLP FBA 16-ch

Format/Info : Meridian Lossless Packing FBA with 16-channel presentation

Commercial name : Dolby TrueHD with Dolby Atmos

Codec ID : A_TRUEHD

Duration : 2 h 4 min

Bit rate mode : Variable

Bit rate : 3 050 kb/s

Maximum bit rate : 5 652 kb/s

Channel(s) : 8 channels

Channel layout : L R C LFE Ls Rs Lb Rb

Sampling rate : 48.0 kHz

Frame rate : 1 200.000 FPS (40 SPF)

Compression mode : Lossless

Stream size : 2.65 GiB (5%)

Title : Original

Language : English

Default : No

Forced : No

Number of dynamic objects : 11

Bed channel count : 1 channel

Bed channel configuration : LFE



Audio #4

ID : 5

Format : AC-3

Format/Info : Audio Coding 3

Commercial name : Dolby Digital

Codec ID : A_AC3

Duration : 2 h 4 min

Bit rate mode : Constant

Bit rate : 448 kb/s

Channel(s) : 6 channels

Channel layout : L R C LFE Ls Rs

Sampling rate : 48.0 kHz

Frame rate : 31.250 FPS (1536 SPF)

Compression mode : Lossy

Stream size : 399 MiB (1%)

Language : English

Service kind : Complete Main

Default : No

Forced : No



Text #1

ID : 6

Format : UTF-8

Codec ID : S_TEXT/UTF8

Codec ID/Info : UTF-8 Plain Text

Duration : 1 h 45 min

Bit rate : 0 b/s

Count of elements : 12

Stream size : 587 Bytes (0%)

Title : Forced

Language : Russian

Default : Yes

Forced : Yes



Text #2

ID : 7

Format : UTF-8

Codec ID : S_TEXT/UTF8

Codec ID/Info : UTF-8 Plain Text

Duration : 1 h 53 min

Bit rate : 48 b/s

Count of elements : 958

Stream size : 40.6 KiB (0%)

Title : Full [Mallorn]

Language : Russian

Default : No

Forced : No



Text #3

ID : 8

Format : UTF-8

Codec ID : S_TEXT/UTF8

Codec ID/Info : UTF-8 Plain Text

Duration : 1 h 49 min

Bit rate : 33 b/s

Count of elements : 965

Stream size : 26.8 KiB (0%)

Title : Full

Language : English

Default : No

Forced : No



Text #4

ID : 9

Format : UTF-8

Codec ID : S_TEXT/UTF8

Codec ID/Info : UTF-8 Plain Text

Duration : 2 h 4 min

Bit rate : 43 b/s

Count of elements : 1416

Stream size : 39.3 KiB (0%)

Title : SDH

Language : English

Default : No

Forced : No



Menu

00:00:00.000 : en:Chapter 1

00:11:05.748 : en:Chapter 2

00:16:09.135 : en:Chapter 3

00:19:16.322 : en:Chapter 4

00:25:27.651 : en:Chapter 5

00:35:52.233 : en:Chapter 6

00:39:50.179 : en:Chapter 7

00:46:35.459 : en:Chapter 8

00:52:41.867 : en:Chapter 9

01:01:22.012 : en:Chapter 10

01:08:59.802 : en:Chapter 11

01:14:49.735 : en:Chapter 12

01:19:23.926 : en:Chapter 13

01:24:46.540 : en:Chapter 14

01:30:25.337 : en:Chapter 15

01:35:24.928 : en:Chapter 16

01:39:33.342 : en:Chapter 17

01:43:04.220 : en:Chapter 18

01:48:54.695 : en:Chapter 19

01:53:38.812 : en:Chapter 20



Релиз от:



Discussion

Comments 0

Post Your Comment

Files in this torrent

FILENAMESIZE
The.Invisible.Man.2020.BDREMUX.2160p.HDR.seleZen.mkv56.7 GB

Alternative Torrents for 'Invisible Man HDR'.

TORRENT NAMEADDEDSIZESEEDSPEERSHEALTH
6/22/202012.2 GB32
5/28/20203.2 GB00
5/22/20209.1 GB00
5/21/202019.1 GB00
5/20/202066.6 GB00
5/20/202059.3 GB00
5/19/202017.4 GB00
5/19/20204.7 GB00
5/17/202056.7 GB00