The Invisible Man 2020 HDRip AVC Rip By HardwareMining R G Generalfilm

Torrent Details

The Invisible Man 2020 HDRip AVC Rip by HardwareMining R G<span style=color:#fc9c6d> Generalfilm</span>
The Invisible Man 2020 HDRip AVC Rip by HardwareMining R G<span style=color:#fc9c6d> Generalfilm</span>

NAME
The Invisible Man 2020 HDRip AVC Rip by HardwareMining R G Generalfilm.torrent
CATEGORY
Movies
INFOHASH
e2f8576ca5119bc07ba903d48b13e4e77de724cf
SIZE
1.5 GB in 1 file
ADDED
Uploaded on 17-05-2020 by our crawler pet called "Spidey".
SWARM
0 seeders & 0 peers
RATING
No votes yet.

Please login to vote for this torrent.


Description

Человек-невидимка / The Invisible Man







Информация о фильме

Год выпуска: 2020

Страна: Австралия, США

Жанр: фантастика, триллер, детектив

Перевод: Дублированный [iTunes]

Субтитры: русские (Forced),

Продолжительность: 02:04:23

Режиссер: Ли Уоннелл

В ролях:





Элизабет Мосс (Cecilia Kass), Оливер Джексон-Коэн (Adrian Griffin), Харриет Дайер (Emily Kass), Элдис Ходж (James Lanier), Сторм Рейд (Sydney Lanier), Майкл Дорман (Tom Griffin), Бенедикт Харди (Marc (Architect)), Рени Лим (Doctor Lee), Брайан Миган (Lyft Driver), Ник Киси (Taylor (Waiter)), Вивьен Грир (Screaming Woman), Николас Хоуп (Head Doctor)





Описание:

Под покровом ночи Сесилия бежит из высокотехнологичного дома своего бойфренда Адриана, усыпив его снотворным и отключив системы наблюдения и сигнализацию. Теперь девушка живёт у друга, боится выходить на улицу и страдает от мании преследования, когда узнает, что её бывший мучитель покончил с собой. Адриан, лидер рынка оптических разработок, оставил Сесилии большое наследство, и, наконец-то, жизнь девушки должна наладиться. Но вскоре она вновь начинает чувствовать тревогу, как будто Адриан незаметно к ней подкрадывается - ведь невозможно спрятаться от преследователя, которого не видишь.

Рейтинг:



MPAA: R - Лицам до 17 лет обязательно присутствие взрослого

Качество: HDRip-AVC

Формат: MKV

Видео: AVC, 1024x428 (2.40:1), 1298 kbps, 23,976 fps, 0,124 bpp

Аудио: русский / AC3 / 5.1 / 48 kHz / 384 kbps / ||

Навигация по главам: есть



Релиз от:



ОтчетМедиаИнфо

General

Unique ID : 197986009784093431303805451897114642993 (0x94F2B7EE63D822909B60EEEACEEACA31)

Complete name : E:Запись с твThe.Invisible.Man.2020.HDRip.AVC.Rip.by.HardwareMining.R.G.Generalfilm.mkv

Format : Matroska

Format version : Version 4 / Version 2

File size : 1.46 GiB

Duration : 2 h 4 min

Overall bit rate : 1 683 kb/s

Movie name : HDRip.AVC.Rip.by.HardwareMining.R.G.Generalfilm

Encoded date : UTC 2020-05-17 12:19:43

Writing application : mkvmerge v6.8.0 ('Theme for Great Cities') 64bit built on Mar 2 2014 21:34:26

Writing library : libebml v1.3.0 + libmatroska v1.4.1



Video

ID : 1

Format : AVC

Format/Info : Advanced Video Codec

Format profile : [email protected]

Format settings, CABAC : Yes

Format settings, ReFrames : 10 frames

Codec ID : V_MPEG4/ISO/AVC

Duration : 2 h 4 min

Bit rate : 1 298 kb/s

Width : 1 024 pixels

Height : 428 pixels

Display aspect ratio : 2.40:1

Frame rate mode : Constant

Frame rate : 23.976 (24000/1001) FPS

Color space : YUV

Chroma subsampling : 4:2:0

Bit depth : 8 bits

Scan type : Progressive

Bits/(Pixel*Frame) : 0.124

Stream size : 1.10 GiB (75%)

Writing library : x264 core 148 r2638 7599210

Encoding settings : cabac=1 / ref=10 / deblock=1:-2:-1 / analyse=0x3:0x113 / me=umh / subme=11 / psy=1 / psy_rd=0.00:0.15 / mixed_ref=1 / me_range=32 / chroma_me=1 / trellis=2 / 8x8dct=1 / cqm=0 / deadzone=21,11 / fast_pskip=0 / chroma_qp_offset=-3 / threads=6 / lookahead_threads=1 / sliced_threads=0 / nr=0 / decimate=0 / interlaced=0 / bluray_compat=0 / constrained_intra=0 / bframes=10 / b_pyramid=2 / b_adapt=2 / b_bias=0 / direct=1 / weightb=1 / open_gop=0 / weightp=2 / keyint=240 / keyint_min=23 / scenecut=40 / intra_refresh=0 / rc_lookahead=40 / rc=2pass / mbtree=0 / bitrate=1298 / ratetol=1.0 / qcomp=0.65 / qpmin=0 / qpmax=69 / qpstep=4 / cplxblur=20.0 / qblur=0.5 / vbv_maxrate=50000 / vbv_bufsize=65500 / nal_hrd=none / filler=0 / ip_ratio=1.40 / pb_ratio=1.30 / aq=1:2.00

Language : English

Default : Yes

Forced : No



Audio

ID : 2

Format : AC-3

Format/Info : Audio Coding 3

Mode extension : CM (complete main)

Format settings, Endianness : Big

Codec ID : A_AC3

Duration : 2 h 4 min

Bit rate mode : Constant

Bit rate : 384 kb/s

Channel(s) : 6 channels

Channel positions : Front: L C R, Side: L R, LFE

Sampling rate : 48.0 kHz

Frame rate : 31.250 FPS (1536 spf)

Compression mode : Lossy

Stream size : 342 MiB (23%)

Title : Dub [iTunes]

Language : Russian

Default : Yes

Forced : Yes



Text

ID : 3

Format : UTF-8

Codec ID : S_TEXT/UTF8

Codec ID/Info : UTF-8 Plain Text

Title : Forced

Language : Russian

Default : Yes

Forced : Yes



Menu

00:00:00.000 : en:

00:11:05.748 : en:

00:16:09.135 : en:

00:19:16.322 : en:

00:25:27.651 : en:

00:35:52.233 : en:

00:39:50.179 : en:

00:46:35.459 : en:

00:52:41.867 : en:

01:01:22.012 : en:

01:08:59.802 : en:

01:14:49.735 : en:

01:19:23.926 : en:

01:24:46.540 : en:

01:30:25.337 : en:

01:35:24.928 : en:

01:39:33.342 : en:

01:43:04.220 : en:

01:48:54.695 : en:

01:53:38.812 : en:



Скриншоты

Discussion

Comments 0

Post Your Comment

Files in this torrent

FILENAMESIZE
The.Invisible.Man.2020.HDRip.AVC.Rip.by.HardwareMining.R.G.Generalfilm.mkv1.5 GB

Alternative Torrents for 'Invisible Man AVC Rip by HardwareMining'.

TORRENT NAMEADDEDSIZESEEDSPEERSHEALTH
5/17/20201.5 GB00