The Blacklist (2013) Season 7 S07 (1080p AMZN WEB-DL X265 HEVC 10bit AAC 5.1 Vyndros)

Torrent Details

The Blacklist (2013) Season 7 S07 (1080p AMZN WEB-DL x265 HEVC 10bit AAC 5.1 Vyndros)
The Blacklist (2013) Season 7 S07 (1080p AMZN WEB-DL x265 HEVC 10bit AAC 5.1 Vyndros)

NAME
The Blacklist (2013) Season 7 S07 (1080p AMZN WEB-DL x265 HEVC 10bit AAC 5.1 Vyndros).torrent
CATEGORY
Television
INFOHASH
d3b3fe1a328cc9a617ab56f7187bead84e4208a2
SIZE
14.6 GB in 19 files
ADDED
Uploaded on 18-05-2020 by our crawler pet called "Spidey".
SWARM
0 seeders & 0 peers
RATING
No votes yet.

Please login to vote for this torrent.


Description





























Media Information



General

Format                                   : Matroska

Format version                           : Version 4 / Version 2

File size                                : 1.19 GiB

Duration                                 : 42 min 55 s

Overall bit rate                         : 3 978 kb/s

Encoded date                             : UTC 2020-05-16 15:08:19

Writing application                      : mkvmerge v20.0.0 ('I Am The Sun') 64-bit

Writing library                          : libebml v1.3.5 + libmatroska v1.4.8

Writing frontend                         : StaxRip v1.7.0.6



Video

ID                                       : 1

Format                                   : HEVC

Format/Info                              : High Efficiency Video Coding

Format profile                           : Main [email protected]@Main

Codec ID                                 : V_MPEGH/ISO/HEVC

Duration                                 : 42 min 55 s

Bit rate                                 : 3 510 kb/s

Width                                    : 1 920 pixels

Height                                   : 1 080 pixels

Display aspect ratio                     : 16:9

Frame rate mode                          : Constant

Frame rate                               : 23.976 (24000/1001) FPS

Color space                              : YUV

Chroma subsampling                       : 4:2:0

Bit depth                                : 10 bits

Bits/(Pixel*Frame)                       : 0.071

Stream size                              : 1.05 GiB (88%)

Writing library                          : x265 3.3+1-g554c887ac:[Windows][MSVC 1924][64 bit] 10bit

Encoding settings                        : cpuid=1111039 / frame-threads=3 / numa-pools=12 / wpp / no-pmode / no-pme / no-psnr / ssim / log-level=2 / input-csp=1 / input-res=1920x1080 / interlace=0 / total-frames=61755 / level-idc=0 / high-tier=1 / uhd-bd=0 / ref=3 / no-allow-non-conformance / no-repeat-headers / annexb / no-aud / no-hrd / info / hash=0 / no-temporal-layers / open-gop / min-keyint=23 / keyint=250 / gop-lookahead=0 / bframes=8 / b-adapt=2 / b-pyramid / bframe-bias=0 / rc-lookahead=80 / lookahead-slices=6 / scenecut=40 / hist-scenecut=0 / radl=0 / no-splice / no-intra-refresh / ctu=64 / min-cu-size=8 / no-rect / no-amp / max-tu-size=32 / tu-inter-depth=1 / tu-intra-depth=1 / limit-tu=0 / rdoq-level=0 / dynamic-rd=0.00 / no-ssim-rd / signhide / no-tskip / nr-intra=0 / nr-inter=0 / no-constrained-intra / no-strong-intra-smoothing / max-merge=3 / limit-refs=1 / no-limit-modes / me=3 / subme=5 / merange=57 / temporal-mvp / no-frame-dup / no-hme / weightp / no-weightb / no-analyze-src-pics / deblock=0:0 / sao / no-sao-non-deblock / rd=3 / selective-sao=4 / early-skip / no-rskip / no-fast-intra / no-tskip-fast / no-cu-lossless / b-intra / no-splitrd-skip / rdpenalty=0 / psy-rd=2.00 / psy-rdoq=0.00 / no-rd-refine / no-lossless / cbqpoffs=0 / crqpoffs=0 / rc=crf / crf=20.0 / qcomp=0.60 / qpstep=4 / stats-write=0 / stats-read=0 / ipratio=1.40 / pbratio=1.30 / aq-mode=3 / aq-strength=0.80 / cutree / zone-count=0 / no-strict-cbr / qg-size=32 / no-rc-grain / qpmax=69 / qpmin=0 / no-const-vbv / sar=0 / overscan=0 / videoformat=5 / range=0 / colorprim=2 / transfer=2 / colormatrix=2 / chromaloc=0 / display-window=0 / cll=0,0 / min-luma=0 / max-luma=1023 / log2-max-poc-lsb=8 / vui-timing-info / vui-hrd-info / slices=1 / no-opt-qp-pps / no-opt-ref-list-length-pps / no-multi-pass-opt-rps / scenecut-bias=0.05 / hist-threshold=0.01 / no-opt-cu-delta-qp / no-aq-motion / no-hdr10 / no-hdr10-opt / no-dhdr10-opt / no-idr-recovery-sei / analysis-reuse-level=0 / analysis-save-reuse-level=0 / analysis-load-reuse-level=0 / scale-factor=0 / refine-intra=0 / refine-inter=0 / refine-mv=1 / refine-ctu-distortion=0 / no-limit-sao / ctu-info=0 / no-lowpass-dct / refine-analysis-type=0 / copy-pic=1 / max-ausize-factor=1.0 / no-dynamic-refine / no-single-sei / no-hevc-aq / no-svt / no-field / qp-adaptation-range=1.00 / no-scenecut-aware-qpconformance-window-offsets / right=0 / bottom=0

Default                                  : Yes

Forced                                   : No



Audio

ID                                       : 2

Format                                   : AAC

Format/Info                              : Advanced Audio Codec

Format profile                           : LC

Codec ID                                 : A_AAC

Duration                                 : 42 min 55 s

Bit rate                                 : 466 kb/s

Channel(s)                               : 6 channels

Channel positions                        : Front: L C R, Side: L R, LFE

Sampling rate                            : 48.0 kHz

Frame rate                               : 46.875 FPS (1024 spf)

Compression mode                         : Lossy

Delay relative to video                  : 20 ms

Stream size                              : 143 MiB (12%)

Language                                 : English

Default                                  : Yes

Forced                                   : Yes



Subtitle

ID                                       : 3

Format                                   : UTF-8

Codec ID                                 : S_TEXT/UTF8

Codec ID/Info                            : UTF-8 Plain Text

Duration                                 : 42 min 20 s

Bit rate                                 : 100 b/s

Count of elements                        : 955

Stream size                              : 31.2 KiB (0%)

Language                                 : English

Default                                  : No

Forced                                   : No



Source Information

Amazon WEB-DL

Discussion

Comments 0

Post Your Comment

Files in this torrent

FILENAMESIZE
The.Blacklist.S07E01.Louis.T.Steinhil.(1).1080p.10bit.AMZN.WEB-DL.AAC5.1.HEVC-Vyndros.mkv914.9 MB
The.Blacklist.S07E02.Louis.T.Steinhil.Conclusion.(2).1080p.10bit.AMZN.WEB-DL.AAC5.1.HEVC-Vyndros.mkv912.1 MB
The.Blacklist.S07E03.Les.Fleurs.du.Mal.1080p.10bit.AMZN.WEB-DL.AAC5.1.HEVC-Vyndros.mkv781.7 MB
The.Blacklist.S07E04.Kuwait.1080p.10bit.AMZN.WEB-DL.DDP5.1.HEVC-Vyndros.mkv797.4 MB
The.Blacklist.S07E05.Norman.Devane.1080p.10bit.AMZN.WEB-DL.AAC5.1.HEVC-Vyndros.mkv721.8 MB
The.Blacklist.S07E06.Dr.Lewis.Powell.1080p.10bit.AMZN.WEB-DL.AAC5.1.HEVC-Vyndros.mkv794.3 MB
The.Blacklist.S07E07.Hannah.Hayes.1080p.10bit.AMZN.WEB-DL.AAC5.1.HEVC-Vyndros.mkv879.2 MB
The.Blacklist.S07E08.The.Hawaladar.1080p.10bit.AMZN.WEB-DL.AAC5.1.HEVC-Vyndros.mkv791.2 MB
The.Blacklist.S07E09.Orion.Relocation.Services.1080p.10bit.AMZN.WEB-DL.AAC5.1.HEVC-Vyndros.mkv681.5 MB
The.Blacklist.S07E10.Katarina.Rostova.1080p.10bit.AMZN.WEB-DL.AAC5.1.HEVC-Vyndros.mkv722.8 MB
The.Blacklist.S07E11.Victoria.Fenberg.1080p.10bit.AMZN.WEB-DL.AAC5.1.HEVC-Vyndros.mkv758.6 MB
The.Blacklist.S07E12.Cornelius.Ruck.1080p.10bit.AMZN.WEB-DL.AAC5.1.HEVC-Vyndros.mkv624.1 MB
The.Blacklist.S07E13.Newton.Purcell.1080p.10bit.AMZN.WEB-DL.AAC5.1.HEVC-Vyndros.mkv725.2 MB
The.Blacklist.S07E14.Twamie.Ullulaq.1080p.10bit.AMZN.WEB-DL.AAC5.1.HEVC-Vyndros.mkv882.3 MB
The.Blacklist.S07E15.Gordon.Kemp.1080p.10bit.AMZN.WEB-DL.AAC5.1.HEVC-Vyndros.mkv722.8 MB
The.Blacklist.S07E16.Nyle.Hatcher.1080p.10bit.AMZN.WEB-DL.AAC5.1.HEVC-Vyndros.mkv690.8 MB
The.Blacklist.S07E17.Brothers.1080p.10bit.AMZN.WEB-DL.AAC5.1.HEVC-Vyndros.mkv682.2 MB
The.Blacklist.S07E18.Roy.Cain.1080p.10bit.AMZN.WEB-DL.AAC5.1.HEVC-Vyndros.mkv630.1 MB
The.Blacklist.S07E19.The.Kazanjian.Brothers.1080p.10bit.AMZN.WEB-DL.AAC5.1.HEVC-Vyndros.mkv1.2 GB

Alternative Torrents for 'Blacklist Season HEVC bit AAC Vyndros'.

TORRENT NAMEADDEDSIZESEEDSPEERSHEALTH
7/8/20202.3 GB1162164
Yesterday291 MB796320
7/8/20201.4 GB624299
Yesterday327 MB560139
7/11/2020501 MB50821
7/11/2020381 MB47422
7/9/20204 GB45326
7/13/2020375 MB42772
7/2/2020994 MB42520
Today1.5 GB414153
Yesterday411 MB403155
7/12/2020260 MB40311
Yesterday347 MB391165
7/11/2020250 MB38217
7/10/202013.6 GB373111