Rick And Morty (2013) S04E08 The Vat Of Acid Episode (1080p AMZN Webrip X265 10bit EAC3 5.1 - Goki)

Torrent Details

Rick and Morty (2013) S04E08 The Vat of Acid Episode (1080p AMZN Webrip x265 10bit EAC3 5.1 - Goki)
Rick and Morty (2013) S04E08 The Vat of Acid Episode (1080p AMZN Webrip x265 10bit EAC3 5.1 - Goki)

NAME
Rick and Morty (2013) S04E08 The Vat of Acid Episode (1080p AMZN Webrip x265 10bit EAC3 5.1 - Goki).torrent
CATEGORY
Television
INFOHASH
4be31aa40a9d0d4b940ffd964ac9ee51c71390bf
SIZE
310 MB in 1 file
ADDED
Uploaded on 18-05-2020 by our crawler pet called "Spidey".
SWARM
0 seeders & 0 peers
RATING
No votes yet.

Please login to vote for this torrent.


Description









Rick and Morty (2013) IMDB























Note: This is the uncensored version :)



Media Information



General

Unique ID                                : 43098119442216909115597413235197495690 (0x206C655843A088C83DE80587EC1C498A)

Complete name                            : Rick and Morty (2013) S04E08 The Vat of Acid Episode (1080p AMZN Webrip x265 10bit EAC3 5.1 - Goki).mkv

Format                                   : Matroska

Format version                           : Version 4

File size                                : 310 MiB

Duration                                 : 22 min 37 s

Overall bit rate                         : 1 917 kb/s

Movie name                               : Rick and Morty (2013) S04E08 The Vat of Acid Episode (1080p AMZN Webrip x265 10bit EAC3 5.1 - Goki).mkv

Writing application                      : Lavf58.29.100

Writing library                          : Lavf58.29.100

ErrorDetectionType                       : Per level 1



Video

ID                                       : 1

Format                                   : HEVC

Format/Info                              : High Efficiency Video Coding

Format profile                           : Main [email protected]@Main

Codec ID                                 : V_MPEGH/ISO/HEVC

Duration                                 : 22 min 37 s

Bit rate                                 : 1 274 kb/s

Width                                    : 1 920 pixels

Height                                   : 1 080 pixels

Display aspect ratio                     : 16:9

Frame rate mode                          : Constant

Frame rate                               : 23.976 (24000/1001) FPS

Color space                              : YUV

Chroma subsampling                       : 4:2:0

Bit depth                                : 10 bits

Bits/(Pixel*Frame)                       : 0.026

Stream size                              : 206 MiB (66%)

Title                                    : Encoded by Goki for TAoE using Hiru V1.2

Writing library                          : x265 3.2+35-acc5d16999e2:[Windows][GCC 9.2.1][64 bit] 10bit

Encoding settings                        : cpuid=1111039 / frame-threads=4 / numa-pools=24 / wpp / no-pmode / no-pme / no-psnr / no-ssim / log-level=2 / input-csp=1 / input-res=1920x1080 / interlace=0 / total-frames=0 / level-idc=0 / high-tier=1 / uhd-bd=0 / ref=4 / no-allow-non-conformance / no-repeat-headers / annexb / no-aud / no-hrd / info / hash=0 / no-temporal-layers / open-gop / min-keyint=23 / keyint=250 / gop-lookahead=0 / bframes=8 / b-adapt=2 / b-pyramid / bframe-bias=0 / rc-lookahead=80 / lookahead-slices=4 / scenecut=40 / hist-scenecut=0 / radl=0 / no-splice / no-intra-refresh / ctu=64 / min-cu-size=8 / no-rect / no-amp / max-tu-size=32 / tu-inter-depth=1 / tu-intra-depth=1 / limit-tu=0 / rdoq-level=2 / dynamic-rd=0.00 / no-ssim-rd / signhide / no-tskip / nr-intra=0 / nr-inter=0 / no-constrained-intra / no-strong-intra-smoothing / max-merge=3 / limit-refs=3 / limit-modes / me=3 / subme=5 / merange=57 / temporal-mvp / no-frame-dup / no-hme / weightp / no-weightb / no-analyze-src-pics / deblock=0:0 / sao / no-sao-non-deblock / rd=4 / selective-sao=4 / no-early-skip / rskip / no-fast-intra / no-tskip-fast / no-cu-lossless / no-b-intra / no-splitrd-skip / rdpenalty=0 / psy-rd=1.30 / psy-rdoq=2.00 / no-rd-refine / no-lossless / cbqpoffs=0 / crqpoffs=0 / rc=crf / crf=22.0 / qcomp=0.60 / qpstep=4 / stats-write=0 / stats-read=0 / ipratio=1.40 / pbratio=1.30 / aq-mode=4 / aq-strength=1.10 / cutree / zone-count=0 / no-strict-cbr / qg-size=32 / no-rc-grain / qpmax=69 / qpmin=0 / no-const-vbv / sar=1 / overscan=0 / videoformat=5 / range=0 / colorprim=2 / transfer=2 / colormatrix=2 / chromaloc=0 / display-window=0 / cll=0,0 / min-luma=0 / max-luma=1023 / log2-max-poc-lsb=8 / vui-timing-info / vui-hrd-info / slices=1 / no-opt-qp-pps / no-opt-ref-list-length-pps / no-multi-pass-opt-rps / scenecut-bias=0.05 / hist-threshold=0.01 / no-opt-cu-delta-qp / no-aq-motion / no-hdr10 / no-hdr10-opt / no-dhdr10-opt / no-idr-recovery-sei / analysis-reuse-level=0 / analysis-save-reuse-level=0 / analysis-load-reuse-level=0 / scale-factor=0 / refine-intra=0 / refine-inter=0 / refine-mv=1 / refine-ctu-distortion=0 / no-limit-sao / ctu-info=0 / no-lowpass-dct / refine-analysis-type=0 / copy-pic=1 / max-ausize-factor=1.0 / no-dynamic-refine / no-single-sei / no-hevc-aq / no-svt / no-field / qp-adaptation-range=1.00 / no-scenecut-aware-qpconformance-window-offsets / right=0 / bottom=0

Default                                  : Yes

Forced                                   : No

Color range                              : Limited



Audio

ID                                       : 2

Format                                   : E-AC-3

Format/Info                              : Enhanced AC-3

Commercial name                          : Dolby Digital Plus

Codec ID                                 : A_EAC3

Duration                                 : 22 min 37 s

Bit rate mode                            : Constant

Bit rate                                 : 640 kb/s

Channel(s)                               : 6 channels

Channel layout                           : L R C LFE Ls Rs

Sampling rate                            : 48.0 kHz

Frame rate                               : 31.250 FPS (1536 SPF)

Bit depth                                : 32 bits

Compression mode                         : Lossy

Stream size                              : 104 MiB (33%)

Language                                 : English

Service kind                             : Complete Main

Default                                  : Yes

Forced                                   : No



Text

ID                                       : 3

Format                                   : UTF-8

Codec ID                                 : S_TEXT/UTF8

Codec ID/Info                            : UTF-8 Plain Text

Duration                                 : 22 min 26 s

Bit rate                                 : 97 b/s

Count of elements                        : 519

Stream size                              : 16.0 KiB (0%)

Title                                    : SDH

Language                                 : English

Default                                  : No

Forced                                   : No





Source

1080p AMZN WEB-DL CtrlHD

283622665209794224505716779779884333580 (0xD55FBD06B28FE0CB5375522C84743A0C)



.........................................................................................................................................



Hello everyone,

We are TAoE, a small team of passionate encoders who love encoding. We try our best to provide you with high quality releases.

If you would like to join the team just drop us a comment or send us a message.





.........................................................................................................................................

Discussion

Comments 0

Post Your Comment

Files in this torrent

FILENAMESIZE
Rick and Morty (2013) S04E08 The Vat of Acid Episode (1080p AMZN Webrip x265 10bit EAC3 5.1 - Goki).mkv310.3 MB

Alternative Torrents for 'Rick and Morty Vat of Acid Episode bit EAC Goki'.

TORRENT NAMEADDEDSIZESEEDSPEERSHEALTH
7/13/20201.3 GB2015156
7/13/2020697 MB1502147
7/11/20201.3 GB136138
7/13/2020832 MB1344775
7/7/20201.6 GB1167146
7/8/20202.3 GB1162164
7/14/2020874 MB10831173
7/13/2020796 MB1083263
7/11/2020695 MB99329
7/13/20201.7 GB917577
Yesterday1.6 GB872653
7/6/20201.3 GB76828
7/6/2020698 MB71522
Today770 MB682683
7/8/20201.4 GB624299