What We Do In The Shadows (2019) S02E06 On The Run (1080p AMZN Webrip X265 10bit EAC3 5.1 - Ainz)[TAoE]

Torrent Details

What We Do in the Shadows (2019) S02E06 On the Run (1080p AMZN Webrip x265 10bit EAC3 5.1 - Ainz)<span style=color:#fc9c6d>[TAoE]</span>
What We Do in the Shadows (2019) S02E06 On the Run (1080p AMZN Webrip x265 10bit EAC3 5.1 - Ainz)<span style=color:#fc9c6d>[TAoE]</span>

NAME
What We Do in the Shadows (2019) S02E06 On the Run (1080p AMZN Webrip x265 10bit EAC3 5.1 - Ainz)[TAoE].torrent
CATEGORY
Television
INFOHASH
0e625312d3b1f3eb376bd12f18219e31678130c0
SIZE
1 GB in 1 file
ADDED
Uploaded on 19-05-2020 by our crawler pet called "Spidey".
SWARM
0 seeders & 0 peers
RATING
No votes yet.

Please login to vote for this torrent.


Description









What We Do in the Shadows (2019) IMDB



























Synopsis

A look into the daily (or rather, nightly) lives of three vampires, who've lived together for over 100 years, on Staten Island.









Media Information



General

Unique ID                                : 203446803589959315155320571032413567162 (0x990E6DDA4F0A0E5D87AD1419BFB678BA)

Complete name                            : What We Do in the Shadows (2019) S02E06 On the Run (1080p AMZN Webrip x265 10bit EAC3 5.1 - Ainz)[TAoE].mkv

Format                                   : Matroska

Format version                           : Version 4

File size                                : 1.03 GiB

Duration                                 : 26 min 16 s

Overall bit rate                         : 5 623 kb/s

Movie name                               : What We Do in the Shadows (2019) S02E06 On the Run (1080p AMZN Webrip x265 10bit EAC3 5.1 - Ainz)[TAoE].mkv

Encoded date                             : UTC 2020-05-19 04:36:19

Writing application                      : mkvmerge v28.2.0 ('The Awakening') 64-bit

Writing library                          : libebml v1.3.6 + libmatroska v1.4.9 / Lavf58.29.100



Video

ID                                       : 1

Format                                   : HEVC

Format/Info                              : High Efficiency Video Coding

Format profile                           : Main [email protected]@Main

Codec ID                                 : V_MPEGH/ISO/HEVC

Duration                                 : 26 min 16 s

Bit rate                                 : 4 980 kb/s

Width                                    : 1 920 pixels

Height                                   : 1 080 pixels

Display aspect ratio                     : 16:9

Frame rate mode                          : Constant

Frame rate                               : 23.976 (24000/1001) FPS

Color space                              : YUV

Chroma subsampling                       : 4:2:0

Bit depth                                : 10 bits

Bits/(Pixel*Frame)                       : 0.100

Stream size                              : 936 MiB (89%)

Title                                    : Encoded by Ainz for TAoE using Hiru V1.2

Writing library                          : x265 3.2+35-acc5d16999e2:[Windows][GCC 9.2.1][64 bit] 10bit

Encoding settings                        : cpuid=1111039 / frame-threads=4 / numa-pools=24 / wpp / no-pmode / no-pme / no-psnr / no-ssim / log-level=2 / input-csp=1 / input-res=1920x1080 / interlace=0 / total-frames=0 / level-idc=0 / high-tier=1 / uhd-bd=0 / ref=4 / no-allow-non-conformance / no-repeat-headers / annexb / no-aud / no-hrd / info / hash=0 / no-temporal-layers / open-gop / min-keyint=23 / keyint=250 / gop-lookahead=0 / bframes=8 / b-adapt=2 / b-pyramid / bframe-bias=0 / rc-lookahead=80 / lookahead-slices=4 / scenecut=40 / hist-scenecut=0 / radl=0 / no-splice / no-intra-refresh / ctu=64 / min-cu-size=8 / no-rect / no-amp / max-tu-size=32 / tu-inter-depth=1 / tu-intra-depth=1 / limit-tu=0 / rdoq-level=2 / dynamic-rd=0.00 / no-ssim-rd / signhide / no-tskip / nr-intra=0 / nr-inter=0 / no-constrained-intra / no-strong-intra-smoothing / max-merge=3 / limit-refs=3 / limit-modes / me=3 / subme=5 / merange=57 / temporal-mvp / no-frame-dup / no-hme / weightp / no-weightb / no-analyze-src-pics / deblock=0:0 / sao / no-sao-non-deblock / rd=4 / selective-sao=4 / no-early-skip / rskip / no-fast-intra / no-tskip-fast / no-cu-lossless / no-b-intra / no-splitrd-skip / rdpenalty=0 / psy-rd=1.30 / psy-rdoq=2.00 / no-rd-refine / no-lossless / cbqpoffs=0 / crqpoffs=0 / rc=crf / crf=20.0 / qcomp=0.60 / qpstep=4 / stats-write=0 / stats-read=0 / ipratio=1.40 / pbratio=1.30 / aq-mode=4 / aq-strength=1.10 / cutree / zone-count=0 / no-strict-cbr / qg-size=32 / no-rc-grain / qpmax=69 / qpmin=0 / no-const-vbv / sar=1 / overscan=0 / videoformat=5 / range=0 / colorprim=2 / transfer=2 / colormatrix=2 / chromaloc=0 / display-window=0 / cll=0,0 / min-luma=0 / max-luma=1023 / log2-max-poc-lsb=8 / vui-timing-info / vui-hrd-info / slices=1 / no-opt-qp-pps / no-opt-ref-list-length-pps / no-multi-pass-opt-rps / scenecut-bias=0.05 / hist-threshold=0.01 / no-opt-cu-delta-qp / no-aq-motion / no-hdr10 / no-hdr10-opt / no-dhdr10-opt / no-idr-recovery-sei / analysis-reuse-level=0 / analysis-save-reuse-level=0 / analysis-load-reuse-level=0 / scale-factor=0 / refine-intra=0 / refine-inter=0 / refine-mv=1 / refine-ctu-distortion=0 / no-limit-sao / ctu-info=0 / no-lowpass-dct / refine-analysis-type=0 / copy-pic=1 / max-ausize-factor=1.0 / no-dynamic-refine / no-single-sei / no-hevc-aq / no-svt / no-field / qp-adaptation-range=1.00 / no-scenecut-aware-qpconformance-window-offsets / right=0 / bottom=0

Default                                  : Yes

Forced                                   : No

Color range                              : Limited



Audio

ID                                       : 2

Format                                   : E-AC-3

Format/Info                              : Enhanced AC-3

Commercial name                          : Dolby Digital Plus

Codec ID                                 : A_EAC3

Duration                                 : 26 min 16 s

Bit rate mode                            : Constant

Bit rate                                 : 640 kb/s

Channel(s)                               : 6 channels

Channel layout                           : L R C LFE Ls Rs

Sampling rate                            : 48.0 kHz

Frame rate                               : 31.250 FPS (1536 SPF)

Compression mode                         : Lossy

Stream size                              : 120 MiB (11%)

Language                                 : English

Service kind                             : Complete Main

Default                                  : Yes

Forced                                   : No



Text #1

ID                                       : 3

Format                                   : UTF-8

Codec ID                                 : S_TEXT/UTF8

Codec ID/Info                            : UTF-8 Plain Text

Duration                                 : 26 min 9 s

Bit rate                                 : 100 b/s

Count of elements                        : 657

Stream size                              : 19.2 KiB (0%)

Language                                 : English

Default                                  : No

Forced                                   : No



Text #2

ID                                       : 4

Format                                   : UTF-8

Codec ID                                 : S_TEXT/UTF8

Codec ID/Info                            : UTF-8 Plain Text

Duration                                 : 26 min 9 s

Bit rate                                 : 100 b/s

Count of elements                        : 664

Stream size                              : 19.2 KiB (0%)

Title                                    : SDH

Language                                 : English

Default                                  : No

Forced                                   : No



Source

1080p AMZN WEB-DL NTb

Thank you for all the hardwork you do, without it, this would not be possible!





Hello everyone,

We are TAoE, a small team of passionate encoders who love encoding. We try our best to provide you with high quality releases.

If you would like to join the team just drop us a comment or send us a message.





.........................................................................................................................................

Discussion

Comments 0

Post Your Comment

Files in this torrent

FILENAMESIZE
What We Do in the Shadows (2019) S02E06 On the Run (1080p AMZN Webrip x265 10bit EAC3 5.1 - Ainz)[TAoE].mkv1 GB

Alternative Torrents for 'What We Do Shadows Run bit EAC Ainz'.

TORRENT NAMEADDEDSIZESEEDSPEERSHEALTH
6/24/2020785 MB71989
6/27/20202.4 GB520193
6/25/2020870 MB27339
6/29/20201.5 GB22562
7/3/2020110 MB20838
7/2/20203.6 GB124221
6/25/2020799 MB1228
6/24/2020799 MB11920
7/1/20202.5 GB11838
6/30/2020476 MB11643
7/1/2020810 MB10922
6/19/20202 GB9367
6/30/2020975 MB8724
7/3/20201 MB7710
7/1/20201.5 GB7413