Sherlock Holmes In Washington 1943 Xvid DVDRip-RLYEH

Torrent Details

Sherlock Holmes in Washington 1943 Xvid DVDRip-RLYEHSherlock Holmes in Washington 1943 Xvid DVDRip-RLYEH

NAME
Sherlock Holmes in Washington 1943 Xvid DVDRip-RLYEH.torrent
CATEGORY
Movies
INFOHASH
ee75f1d6421dcc65df3e891d05fb4822de5dbe69
SIZE
700 MB in 2 files
ADDED
Uploaded on 01-12-2011 by our crawler pet called "Spidey".
SWARM
0 seeders & 0 peers
RATING
No votes yet.

Please login to vote for this torrent.


Description

Release Date : 1943
IMDB : http://www.imdb.com/title/tt0036349/

Complete name : Sherlock.Holmes.in.Washington.1943.Xvid.DVDRip-RLYEH.avi
Format : AVI
Format/Info : Audio Video Interleave
File size : 700 MiB
Duration : 1h 11mn
Overall bit rate mode : Variable
Overall bit rate : 1 366 Kbps
Writing application : VirtualDubMod 1.5.10.2 (build 2540/release)
Writing library : VirtualDubMod build 2540/release

Video
ID : 0
Format : MPEG-4 Visual
Format profile : Advanced [email protected]
Format settings, BVOP : 1
Format settings, QPel : No
Format settings, GMC : No warppoints
Format settings, Matrix : Custom
Codec ID : XVID
Codec ID/Hint : XviD
Duration : 1h 11mn
Bit rate : 1 247 Kbps
Width : 624 pixels
Height : 464 pixels
Display aspect ratio : 4:3
Frame rate : 23.976 fps
Color space : YUV
Chroma subsampling : 4:2:0
Bit depth : 8 bits
Scan type : Progressive
Compression mode : Lossy
Bits/(Pixel*Frame) : 0.180
Stream size : 639 MiB (91%)
Writing library : XviD 64

Audio
ID : 1
Format : MPEG Audio
Format version : Version 1
Format profile : Layer 3
Mode : Joint stereo
Mode extension : MS Stereo
Codec ID : 55
Codec ID/Hint : MP3
Duration : 1h 11mn
Bit rate mode : Variable
Bit rate : 106 Kbps
Nominal bit rate : 128 Kbps
Channel(s) : 2 channels
Sampling rate : 48.0 KHz
Compression mode : Lossy
Stream size : 54.3 MiB (8%)
Alignment : Aligned on interleaves
Interleave, duration : 24 ms (0.58 video frame)
Interleave, preload duration : 173 ms
Writing library : LAME3.98r
Encoding settings : -m j -V 4 -q 2 -lowpass 17 --abr 128
Language : English

In World War II, a British secret agent carrying a vitally important document is kidnapped en route to Washington. The British government calls on Sherlock Holmes to recover it.





Discussion

Comments 0

Post Your Comment

Files in this torrent

FILENAMESIZE
Sherlock.Holmes.in.Washington.1943.Xvid.DVDRip-RLYEH.avi700.2 MB
shiw-rlyeh.nfo9.4 KB

Alternative Torrents for 'Sherlock Holmes Washington DVDRipRLYEH'.

There are no alternative torrents found.