The Invisible Man 2020 BDREMUX 2160p HDR DV_TV SeleZen

Torrent Details

The Invisible Man 2020 BDREMUX 2160p HDR DV_TV<span style=color:#fc9c6d> seleZen</span>
The Invisible Man 2020 BDREMUX 2160p HDR DV_TV<span style=color:#fc9c6d> seleZen</span>

NAME
The Invisible Man 2020 BDREMUX 2160p HDR DV_TV seleZen.torrent
CATEGORY
Movies
INFOHASH
63390dc11b82a094e665e7af5937c10806c70463
SIZE
59.3 GB in 2 files
ADDED
Uploaded on 20-05-2020 by our crawler pet called "Spidey".
SWARM
0 seeders & 0 peers
RATING
No votes yet.

Please login to vote for this torrent.


Description

Информация о фильме

Название: Человек-невидимка

Оригинальное название: The Invisible Man

Год выхода: 2020

Жанр: Ужасы, фантастика, триллер, детектив

Режиссер: Ли Уоннелл

В ролях: Элизабет Мосс, Оливер Джексон-Коэн, Харриет Дайер, Элдис Ходж, Сторм Рейд, Майкл Дорман, Бенедикт Харди, Рени Лим, Брайан Миган, Ник Кичи







О фильме: На первый взгляд жизнь Сесилии кажется безупречной: огромный дом, бойфренд - гениальный ученый-миллионер. Но никто не знает, что на самом деле происходит за высокими стенами роскошного особняка... И даже идеально спланированный побег оказывается ловушкой. Невозможно спрятаться от преследователя, которого не видишь.



Страна: Австралия, США, Канада, Великобритания

Студия: Goalpost Pictures, Blumhouse Productions, Dark Universe

Продолжительность: 02:04:23

Перевод: Дублированный | iTunes



Качество: BDRemux 2160p

Видео: 3840x2160 at 23.976 fps, MPEG-H HEVC HDR Video, 60800 kbps avg

Аудио: 48 kHz, AC3, 5.1, 384 Kbps | iTunes | RUS |

Субтитры: Русские (Forced, отдельно)







MIGeneral

Complete name : D:Video222The.Invisible.Man.2020.BDREMUX.2160p.HDR.DV_TV.seleZenThe.Invisible.Man.2020.BDREMUX.2160p.HDR.DV_TV.seleZen.mp4

Format : MPEG-4

Format profile : Base Media / Version 2

Codec ID : mp42 (mp42/dby1/isom)

File size : 59.3 GiB

Duration : 2 h 4 min

Overall bit rate : 68.3 Mb/s

Encoded date : UTC 2020-05-20 13:24:13

Tagged date : UTC 2020-05-20 13:24:13



Video #1

ID : 1

Format : HEVC

Format/Info : High Efficiency Video Coding

Format profile : Main [email protected]@High

HDR format : SMPTE ST 2094 App 4, Version 1, HDR10+ Profile B compatible

Codec ID : hev1

Codec ID/Info : High Efficiency Video Coding

Duration : 2 h 4 min

Bit rate : 60.8 Mb/s

Width : 3 840 pixels

Height : 2 160 pixels

Display aspect ratio : 16:9

Frame rate mode : Constant

Frame rate : 23.976 (24000/1001) FPS

Color space : YUV

Chroma subsampling : 4:2:0 (Type 2)

Bit depth : 10 bits

Bits/(Pixel*Frame) : 0.306

Stream size : 52.8 GiB (89%)

Default : No

Encoded date : UTC 2020-05-20 13:24:13

Tagged date : UTC 2020-05-20 13:24:13

Color range : Limited

Color primaries : BT.2020

Transfer characteristics : PQ

Matrix coefficients : BT.2020 non-constant

Mastering display color pri : Display P3

Mastering display luminance : min: 0.0001 cd/m2, max: 1000 cd/m2

Maximum Content Light Level : 249 cd/m2

Maximum Frame-Average Light : 37 cd/m2

Codec configuration box : hvcC



Video #2

ID : 2

Format : HEVC

Format/Info : High Efficiency Video Coding

Format profile : Main [email protected]@High

HDR format : Dolby Vision, Version 1.0, dvhe.07.06, EL+RPU, Blu-ray compatible / SMPTE ST 2086, HDR10 compatible

Codec ID : dvhe

Codec ID/Info : High Efficiency Video Coding with Dolby Vision

Duration : 2 h 4 min

Bit rate : 7 082 kb/s

Width : 1 920 pixels

Height : 1 080 pixels

Display aspect ratio : 16:9

Frame rate mode : Constant

Frame rate : 23.976 (24000/1001) FPS

Color space : YUV

Chroma subsampling : 4:2:0 (Type 2)

Bit depth : 10 bits

Bits/(Pixel*Frame) : 0.142

Stream size : 6.15 GiB (10%)

Default : No

Encoded date : UTC 2020-05-20 13:24:13

Tagged date : UTC 2020-05-20 13:24:13

Color range : Limited

Color primaries : BT.2020

Transfer characteristics : PQ

Matrix coefficients : BT.2020 non-constant

Mastering display color pri : Display P3

Mastering display luminance : min: 0.0001 cd/m2, max: 1000 cd/m2

Codec configuration box : hvcC+dvcC



Audio

ID : 3

Format : AC-3

Format/Info : Audio Coding 3

Commercial name : Dolby Digital

Codec ID : ac-3

Duration : 2 h 4 min

Bit rate mode : Constant

Bit rate : 384 kb/s

Channel(s) : 6 channels

Channel layout : L R C LFE Ls Rs

Sampling rate : 48.0 kHz

Frame rate : 31.250 FPS (1536 SPF)

Compression mode : Lossy

Stream size : 342 MiB (1%)

Language : Russian

Service kind : Complete Main

Default : No

Encoded date : UTC 2020-05-20 13:24:13

Tagged date : UTC 2020-05-20 13:24:13



Релиз от:



Discussion

Comments 0

Post Your Comment

Files in this torrent

FILENAMESIZE
The.Invisible.Man.2020.BDREMUX.2160p.HDR.DV_TV.seleZen.mp459.3 GB
The.Invisible.Man.2020.BDREMUX.2160p.HDR.DV_TV.seleZen.srt1 KB

Alternative Torrents for 'Invisible Man HDR DVTV'.

TORRENT NAMEADDEDSIZESEEDSPEERSHEALTH
6/22/20202 GB38123
Yesterday2 GB36230
6/16/20201.5 GB2215
6/18/2020864 MB20910
6/19/20201.9 GB19710
6/25/20201.9 GB1884
6/20/20201 GB14227
6/16/202011.4 GB12213
6/20/20202.1 GB10227
6/28/20203.4 GB9326
6/19/2020864 MB859
6/28/20206.6 GB83106
6/22/2020677 MB722
6/22/20203.2 GB668
Today840 MB6252