Bloodshot 2020 Lic,BDRip 1.46GB X264

Torrent Details

Bloodshot 2020 Lic,BDRip 1.46GB x264
Bloodshot 2020 Lic,BDRip 1.46GB x264

NAME
Bloodshot 2020 Lic,BDRip 1.46GB x264.torrent
CATEGORY
Movies
INFOHASH
f07f1a7027edfae2e0536a655467ec51d7bc9775
SIZE
1.5 GB in 1 file
ADDED
Uploaded on 20-05-2020 by our crawler pet called "Spidey".
SWARM
0 seeders & 0 peers
RATING
No votes yet.

Please login to vote for this torrent.


Description

«Быть супергероем у него в крови»



Информация о фильме

Название: Бладшот

Оригинальное название: Bloodshot

Год выхода: 2020

Жанр: Фантастика, боевик

Режиссер: Дэйв Уилсон

В ролях: Вин Дизель, Гай Пирс, Ламорн Моррис, Эйса Гонсалес, Сэм Хьюэн, Сиддхартх Дхананджай, Талула Райли, Тоби Кеббелл, Йоуханнес Хёйкьюр, Йоуханнессон, Алекс Эрнандез



О фильме:

Военный Рэй Гаррисон возвращается из очередной горячей точки к любимой красавице-жене. Супруги проводят отпуск в Европе, но счастье длится недолго — террористы, не сумев вытянуть из Рэя нужную им информацию, убивают жену, а затем и его самого. Но вскоре корпорация RST возвращает его к жизни. Армия нанороботов в крови превратила Рэя в бессмертного Бладшота, и теперь солдат наделен сверхсилой и способностью мгновенно самоисцеляться, вот только память оставляет желать лучшего. Но вскоре воспоминания о последних мгновениях жизни возвращаются, и Бладшот отправляется мстить за смерть жены.







Страна: Китай, США

Студия: Bona Film Group, Columbia Pictures Corporation, Cross Creek Pictures, One Race Films, Original Film, Sony Pictures Entertainment (SPE), The Hideaway Entertainment, Valiant Entertainment

Продолжительность: 01:49:20

Перевод:

• Профессиональный (полное дублирование) | Лицензия Blu-ray EUR



Файл

Качество: BDRip-AVC

Исходник: Bloodshot.2020.MULTI.COMPLETE.BLURAY-BD4U

Формат: MKV

Кодек: MPEG-4 AVC

Видео: 720x302 (2.40:1), 23,976 fps, MPEG-4 AVC ~ 1460 Kbps avg, 0.280 bit/pixel

Аудио: AC3, 48 kHz, 6 ch, ~448.00 kbps avg | русский | Blu-ray EUR

Субтитры: Русские (Forced, full), украинские (Full)





Инфо-файлОбщее

Уникальный идентификатор : 47406406174499850957452730530826701500 (0x23AA2447CF386B8AFDC0E87ED7FA4ABC)

Полное имя : Bloodshot.2020.Lic,BDRip.1.46Gb.x264.mkv

Формат : Matroska

Версия формата : Version 4

Размер файла : 1,46 Гбайт

Продолжительность : 1 ч. 49 м.

Общий поток : 1907 Кбит/сек

Название фильма : Бладшот / Bloodshot

Дата кодирования : UTC 2020-05-20 19:44:46

Программа кодирования : mkvmerge v46.0.0 ('No Deeper Escape') 64-bit

Библиотека кодирования : libebml v1.3.10 + libmatroska v1.5.2

Обложка : Yes

Attachments : cover.jpg



Видео

Идентификатор : 1

Формат : AVC

Формат/Информация : Advanced Video Codec

Профиль формата : [email protected]

Настройки формата : CABAC / 10 Ref Frames

Параметр CABAC формата : Да

Параметр RefFrames формата : 10 кадров

Идентификатор кодека : V_MPEG4/ISO/AVC

Продолжительность : 1 ч. 49 м.

Битрейт : 1460 Кбит/сек

Ширина : 720 пикселей

Высота : 302 пикселя

Соотношение сторон : 2,40:1

Режим частоты кадров : Постоянный

Частота кадров : 23,976 кадра/сек

Цветовое пространство : YUV

Субдискретизация насыщенности : 4:2:0

Битовая глубина : 8 бит

Тип развёртки : Прогрессивная

Бит/(Пиксели*Кадры) : 0.280

Размер потока : 1,11 Гбайт (76%)

Заголовок : #stillet

Библиотека кодирования : x264 core 152 r2851bm ba24899

Настройки программы : cabac=1 / ref=10 / deblock=1:-3:-3 / analyse=0x3:0x113 / me=umh / subme=11 / psy=1 / psy_rd=1.00:0.15 / mixed_ref=1 / me_range=32 / chroma_me=1 / trellis=2 / 8x8dct=1 / cqm=0 / deadzone=21,11 / fast_pskip=0 / chroma_qp_offset=-3 / threads=8 / lookahead_threads=3 / sliced_threads=0 / nr=0 / decimate=0 / interlaced=0 / bluray_compat=0 / constrained_intra=0 / bframes=10 / b_pyramid=2 / b_adapt=2 / b_bias=0 / direct=3 / weightb=1 / open_gop=0 / weightp=2 / keyint=240 / keyint_min=23 / scenecut=40 / intra_refresh=0 / rc=2pass / mbtree=0 / bitrate=1460 / ratetol=1.0 / qcomp=0.60 / qpmin=0 / qpmax=69 / qpstep=4 / cplxblur=20.0 / qblur=0.5 / ip_ratio=1.40 / pb_ratio=1.30 / aq=1:1.00

Язык : English

Default : Да

Forced : Нет



Аудио

Идентификатор : 2

Формат : AC-3

Формат/Информация : Audio Coding 3

Коммерческое название : Dolby Digital

Идентификатор кодека : A_AC3

Продолжительность : 1 ч. 49 м.

Вид битрейта : Постоянный

Битрейт : 448 Кбит/сек

Каналы : 6 каналов

ChannelLayout : L R C LFE Ls Rs

Частота : 48,0 КГц

Частота кадров : 31,250 кадров/сек (1536 SPF)

Метод сжатия : С потерями

Размер потока : 350 Мбайт (23%)

Заголовок : Blu-ray EUR

Язык : Russian

Default : Да

Forced : Да



Текст #1

Идентификатор : 3

Формат : UTF-8

Идентификатор кодека : S_TEXT/UTF8

Идентификатор кодека/Информация : UTF-8 Plain Text

Продолжительность : 1 ч. 47 м.

Битрейт : 0 бит/сек

ElementCount : 10

Размер потока : 400 байт (0%)

Заголовок : Forced

Язык : Russian

Default : Да

Forced : Да



Текст #2

Идентификатор : 4

Формат : UTF-8

Идентификатор кодека : S_TEXT/UTF8

Идентификатор кодека/Информация : UTF-8 Plain Text

Продолжительность : 1 ч. 48 м.

Битрейт : 72 бит/сек

ElementCount : 1072

Размер потока : 57,8 Кбайт (0%)

Заголовок : Full

Язык : Russian

Default : Нет

Forced : Нет



Текст #3

Идентификатор : 5

Формат : UTF-8

Идентификатор кодека : S_TEXT/UTF8

Идентификатор кодека/Информация : UTF-8 Plain Text

Продолжительность : 1 ч. 48 м.

Битрейт : 66 бит/сек

ElementCount : 1071

Размер потока : 52,6 Кбайт (0%)

Заголовок : Full

Язык : Ukrainian

Default : Нет

Forced : Нет



Меню

00:00:00.000 : en:Chapter 01

00:07:06.384 : en:Chapter 02

00:13:56.210 : en:Chapter 03

00:20:36.861 : en:Chapter 04

00:25:05.546 : en:Chapter 05

00:32:11.179 : en:Chapter 06

00:41:41.499 : en:Chapter 07

00:46:39.380 : en:Chapter 08

00:53:35.629 : en:Chapter 09

01:02:28.495 : en:Chapter 10

01:08:59.344 : en:Chapter 11

01:12:42.525 : en:Chapter 12

01:19:15.918 : en:Chapter 13

01:26:49.996 : en:Chapter 14

01:31:07.379 : en:Chapter 15

01:38:31.531 : en:Chapter 16

01:44:11.245 : en:Chapter 17Скриншоты



Discussion

Comments 0

Post Your Comment

Files in this torrent

FILENAMESIZE
Bloodshot.2020.Lic,BDRip.1.46Gb.x264.mkv1.5 GB

Alternative Torrents for 'Bloodshot Lic'.

TORRENT NAMEADDEDSIZESEEDSPEERSHEALTH
5/21/20205.1 GB00
5/21/202012.7 GB00
5/20/20201.5 GB00