Brahms The Boy II (2020) BDRip-HEVC 1080p 10 Bit

Torrent Details

Brahms The Boy II (2020) BDRip-HEVC 1080p 10 bit
Brahms The Boy II (2020) BDRip-HEVC 1080p 10 bit

NAME
Brahms The Boy II (2020) BDRip-HEVC 1080p 10 bit.torrent
CATEGORY
Movies
INFOHASH
8806b52170c2c2d4669b1a837c66808ffe49c05e
SIZE
3.1 GB in 1 file
ADDED
Uploaded on 21-05-2020 by our crawler pet called "Spidey".
SWARM
0 seeders & 0 peers
RATING
No votes yet.

Please login to vote for this torrent.


Description

Год выхода: 2020

Страна / Студия: США, Китай, Канада, Австралия / STX Films, Lakeshore Entertainment, Huayi Brothers Media

Жанр: ужасы, триллер, драма, детектив

Продолжительность: 01:27:00

Перевод: Дублированный (iTunes)



Режиссер: Уильям Брент Белл

В ролях: Кэти Холмс, Овайн Йомэн, Кристофер Конвери, Ралф Айнесон, Анджали Джай, Оливер Райс, Натали Ривалин, Дафна Хоскинс, Джоэли Коллинз, Элли Кинг



Описание: 9-летний Джуд стал свидетелем нападения на маму грабителей, которые залезли в их дом, и с тех пор перестал разговаривать. Пытаясь помочь ребёнку, родители решают переехать за город, и их выбор падает на старинный особняк Хилшир. Неподалёку в лесу Джуд откапывает странную куклу практически ростом с него самого. Мальчик не расстаётся с новым «другом» по имени Брамс и вскоре идёт на поправку. Родители очень рады, ведь они не подозревают, чем обернется эта зловещая дружба.



Качество: BDRip 1080p

Видео: HEVC/H.265, 1920x804, ~4222 Kbps

Аудио 1: AC3, 6 ch, 384 Kbps - Русский, дублированный

Аудио 2: AC3, 6 ch, 448 Kbps - Английский

Субтитры: Отсутствуют







Релиз от: Donatik



Mediainfo

Общее

Уникальный идентификатор : 274644929286687276549185515918315132551 (0xCE9EB07880D8F397497E1771284E9687)

Полное имя : R:Brahms The Boy II (2020) BDRip-HEVC 1080p 10 bit.mkv

Формат : Matroska

Версия формата : Version 4 / Version 2

Размер файла : 3,07 Гбайт

Продолжительность : 1 ч. 27 м.

Общий поток : 5057 Кбит/сек

Название фильма : Кукла 2: Брамс

Дата кодирования : UTC 2020-05-14 17:10:06

Программа кодирования : mkvmerge v46.0.0 ('No Deeper Escape') 64-bit

Библиотека кодирования : libebml v1.3.10 + libmatroska v1.5.2 / Lavf57.71.100

Attachments : poster.jpg

ACTORS : Кристофер Конвери, Кэти Холмс,

COUNTRY : США

DATE : 2020

DIRECTOR : Уильям Брент Белл

ENCODING_INFO : MATROSKA,WEBM > MKV 1080p 10-bit / H264 > X265 CRF 18.5 Slower

GENRE : ужасы, триллер, драма

HD_VIDEO : 1

Язык : und

MEDIA_TYPE : 9

ORIGINAL_TITLE : Brahms: The Boy II



Видео

Идентификатор : 1

Формат : HEVC

Формат/Информация : High Efficiency Video Coding

Профиль формата : Main [email protected]@High

Идентификатор кодека : V_MPEGH/ISO/HEVC

Продолжительность : 1 ч. 27 м.

Битрейт : 4222 Кбит/сек

Ширина : 1920 пикселей

Высота : 804 пикселя

Соотношение сторон : 2,40:1

Режим частоты кадров : Постоянный

Частота кадров : 23,976 (24000/1001) кадра/сек

Цветовое пространство : YUV

Субдискретизация насыщенности : 4:2:0

Битовая глубина : 10 бит

Бит/(Пиксели*Кадры) : 0.114

Размер потока : 2,57 Гбайт (84%)

Библиотека кодирования : x265 3.1+7-147fb92c5ed5:[Windows][clang 8.0.0][64 bit] 10bit

Настройки программы : cpuid=1111039 / frame-threads=7 / wpp / no-pmode / no-pme / no-psnr / no-ssim / log-level=3 / input-csp=1 / input-res=1920x804 / interlace=0 / total-frames=0 / level-idc=41 / high-tier=1 / uhd-bd=0 / ref=5 / allow-non-conformance / no-repeat-headers / annexb / no-aud / no-hrd / info / hash=0 / no-temporal-layers / open-gop / min-keyint=23 / keyint=240 / gop-lookahead=0 / bframes=16 / b-adapt=2 / b-pyramid / bframe-bias=0 / rc-lookahead=60 / lookahead-slices=4 / scenecut=40 / radl=0 / no-splice / no-intra-refresh / ctu=32 / min-cu-size=8 / rect / no-amp / max-tu-size=32 / tu-inter-depth=4 / tu-intra-depth=4 / limit-tu=1 / rdoq-level=2 / dynamic-rd=0.00 / no-ssim-rd / signhide / no-tskip / nr-intra=0 / nr-inter=0 / no-constrained-intra / no-strong-intra-smoothing / max-merge=5 / limit-refs=2 / limit-modes / me=3 / subme=7 / merange=57 / temporal-mvp / no-hme / weightp / weightb / no-analyze-src-pics / deblock=-3:-3 / no-sao / no-sao-non-deblock / rd=4 / no-early-skip / no-rskip / no-fast-intra / no-tskip-fast / no-cu-lossless / no-b-intra / no-splitrd-skip / rdpenalty=0 / psy-rd=2.00 / psy-rdoq=1.00 / no-rd-refine / no-lossless / cbqpoffs=0 / crqpoffs=0 / rc=crf / crf=18.5 / qcomp=0.70 / qpstep=4 / stats-write=0 / stats-read=0 / vbv-maxrate=50000 / vbv-bufsize=50000 / vbv-init=0.9 / crf-max=30.0 / crf-min=0.0 / ipratio=1.40 / pbratio=1.30 / aq-mode=2 / aq-strength=1.00 / no-cutree / zone-count=0 / no-strict-cbr / qg-size=32 / no-rc-grain / qpmax=69 / qpmin=0 / no-const-vbv / sar=1 / overscan=0 / videoformat=5 / range=0 / colorprim=1 / transfer=1 / colormatrix=1 / chromaloc=0 / display-window=0cll=0,0 / min-luma=0 / max-luma=1023 / log2-max-poc-lsb=8 / vui-timing-info / vui-hrd-info / slices=1 / no-opt-qp-pps / no-opt-ref-list-length-pps / no-multi-pass-opt-rps / scenecut-bias=0.05 / no-opt-cu-delta-qp / no-aq-motion / no-hdr / no-hdr-opt / no-dhdr10-opt / no-idr-recovery-sei / analysis-reuse-level=5 / scale-factor=0 / refine-intra=0 / refine-inter=0 / refine-mv=0 / refine-ctu-distortion=0 / no-limit-sao / ctu-info=0 / no-lowpass-dct / refine-analysis-type=14 / copy-pic=1 / max-ausize-factor=1.0 / no-dynamic-refine / no-single-sei / no-hevc-aq / no-svt / no-field / qp-adaptation-range=1.00

Язык : English

Default : Да

Forced : Нет

Цветовой диапазон : Limited

Основные цвета : BT.709

Характеристики трансфера : BT.709

Коэффициенты матрицы : BT.709



Аудио #1

Идентификатор : 2

Формат : AC-3

Формат/Информация : Audio Coding 3

Идентификатор кодека : A_AC3

Продолжительность : 1 ч. 27 м.

Вид битрейта : Постоянный

Битрейт : 384 Кбит/сек

Каналы : 6 каналов

Расположение каналов : Front: L C R, Side: L R, LFE

Частота : 48,0 КГц

Частота кадров : 31,250 кадров/сек (1536 SPF)

Битовая глубина : 16 бит

Метод сжатия : С потерями

Размер потока : 239 Мбайт (8%)

Заголовок : iTunes

Язык : Russian

ServiceKind/Strin : Complete Main

Default : Да

Forced : Да



Аудио #2

Идентификатор : 3

Формат : AC-3

Формат/Информация : Audio Coding 3

Идентификатор кодека : A_AC3

Продолжительность : 1 ч. 27 м.

Вид битрейта : Постоянный

Битрейт : 448 Кбит/сек

Каналы : 6 каналов

Расположение каналов : Front: L C R, Side: L R, LFE

Частота : 48,0 КГц

Частота кадров : 31,250 кадров/сек (1536 SPF)

Битовая глубина : 16 бит

Метод сжатия : С потерями

Размер потока : 279 Мбайт (9%)

Заголовок : Оригинал

Язык : English

ServiceKind/Strin : Complete Main

Default : Нет

Forced : Нет



Меню

00:00:00.000 : :Chapter 1

00:04:12.460 : :Chapter 2

00:10:29.128 : :Chapter 3

00:15:08.991 : :Chapter 4

00:19:32.838 : :Chapter 5

00:25:38.829 : :Chapter 6

00:30:39.045 : :Chapter 7

00:34:11.174 : :Chapter 8

00:39:19.106 : :Chapter 9

00:43:00.286 : :Chapter 10

00:46:27.659 : :Chapter 11

00:48:32.910 : :Chapter 12

00:54:01.404 : :Chapter 13

00:57:54.846 : :Chapter 14

01:03:06.491 : :Chapter 15

01:08:23.099 : :Chapter 16

01:11:29.033 : :Chapter 17

01:15:44.665 : :Chapter 18

01:18:13.897 : :Chapter 19

01:20:20.607 : :Chapter 20

Discussion

Comments 0

Post Your Comment

Files in this torrent

FILENAMESIZE
Brahms The Boy II (2020) BDRip-HEVC 1080p 10 bit.mkv3.1 GB

Alternative Torrents for 'Brahms Boy II HEVC bit'.

TORRENT NAMEADDEDSIZESEEDSPEERSHEALTH
5/21/20203.1 GB00