1917 2019 Lic BDRip 4 37Gb X264

Torrent Details


1917 2019 Lic BDRip 4 37Gb x264

NAME
1917 2019 Lic BDRip 4 37Gb x264.torrent
CATEGORY
Movies
INFOHASH
acc964c24f9a0cafba9ad92f9eca942cfb36cd54
SIZE
4.4 GB in 1 file
ADDED
Uploaded on 21-05-2020 by our crawler pet called "Spidey".
SWARM
0 seeders & 0 peers
RATING
No votes yet.

Please login to vote for this torrent.


Description

«Время — наш главный враг»



Информация о фильме

Название: 1917

Оригинальное название: 1917

Год выхода: 2019

Жанр: Военный, боевик, драма, история

Режиссер: Сэм Мендес

В ролях: Джордж Маккэй, Дин-Чарльз Чепмен, Марк Стронг, Эндрю Скотт, Ричард Мэдден, Клэр Дюбюрк, Колин Фёрт, Бенедикт Камбербэтч, Дэниэл Мейс, Эдриан Скарборо



О фильме:

6 апреля 1917 года, разгар Первой мировой войны, Западный фронт на севере Франции. Британский генерал поручает капралу Блэйку и его сослуживцу смертельно опасную миссию. Они должны пересечь вражескую территорию, вроде бы оставленную германскими войсками, и доставить приказ об отмене наступления во 2-й батальон Девонширского полка, иначе 1600 солдат попадут в ловушку противника, в том числе и брат Блэйка.







Страна: США, Великобритания, Индия, Испания, Канада

Студия: Amblin Partners, DreamWorks SKG, Neal Street Productions, New Republic Pictures

Продолжительность: 01:58:58

Перевод:

• Профессиональный (полное дублирование) | Лицензия Blu-Ray EUR

• Профессиональный (многоголосый, закадровый) | HDRezka Studio

• Авторский (одноголосый, закадровый) | Гаевский

• Авторский (одноголосый, закадровый) | zamez



Файл

Качество: BDRip-AVC

Исходник: 1917.2019.BDREMUX.1080p.seleZen.mkv

Формат: MKV

Кодек: MPEG-4 AVC

Видео: 1032x430 (2,40:1), 23,976 fps, MPEG-4 AVC ~ 3268 Kbps avg, 0.307 bit/pixel

Аудио: AC3, 48 kHz, 6 ch, ~448.00 kbps avg | русский | Blu-Ray EUR

Аудио: AC3, 48 kHz, 2 ch, ~192.00 kbps avg | русский | HDRezka Studio

Аудио: AC3, 48 kHz, 6 ch, ~448.00 kbps avg | русский | Гаевский

Аудио: AC3, 48 kHz, 6 ch, ~448.00 kbps avg | русский | zamez

Аудио: AC3, 48 kHz, 6 ch, ~448.00 kbps avg | английский | Оригинал

Субтитры: Русские (Forced, Full), английские (Full, SDH)





Инфо-файлОбщее

Уникальный идентификатор : 7071293865080027373311016569567918443 (0x551E1B478CB5D19E1A7B9ECEBEF396B)

Полное имя : 1917.2019.Lic.BDRip.4.37Gb.x264.mkv

Формат : Matroska

Версия формата : Version 4

Размер файла : 4,37 Гбайт

Продолжительность : 1 ч. 58 м.

Общий поток : 5254 Кбит/сек

Название фильма : 1917 / 1917 (2019)

Дата кодирования : UTC 2020-05-21 15:11:05

Программа кодирования : mkvmerge v46.0.0 ('No Deeper Escape') 64-bit

Библиотека кодирования : libebml v1.3.10 + libmatroska v1.5.2

Обложка : Yes

Attachments : cover.jpg



Видео

Идентификатор : 1

Формат : AVC

Формат/Информация : Advanced Video Codec

Профиль формата : [email protected]

Настройки формата : CABAC / 9 Ref Frames

Параметр CABAC формата : Да

Параметр RefFrames формата : 9 кадров

Идентификатор кодека : V_MPEG4/ISO/AVC

Продолжительность : 1 ч. 58 м.

Битрейт : 3268 Кбит/сек

Ширина : 1032 пикселя

Высота : 430 пикселей

Соотношение сторон : 2,40:1

Режим частоты кадров : Постоянный

Частота кадров : 23,976 кадра/сек

Цветовое пространство : YUV

Субдискретизация насыщенности : 4:2:0

Битовая глубина : 8 бит

Тип развёртки : Прогрессивная

Бит/(Пиксели*Кадры) : 0.307

Размер потока : 2,72 Гбайт (62%)

Заголовок : #stillet

Библиотека кодирования : x264 core 152 r2851bm ba24899

Настройки программы : cabac=1 / ref=9 / deblock=1:-3:-3 / analyse=0x3:0x113 / me=umh / subme=11 / psy=1 / psy_rd=1.00:0.15 / mixed_ref=1 / me_range=32 / chroma_me=1 / trellis=2 / 8x8dct=1 / cqm=0 / deadzone=21,11 / fast_pskip=0 / chroma_qp_offset=-3 / threads=8 / lookahead_threads=3 / sliced_threads=0 / nr=0 / decimate=0 / interlaced=0 / bluray_compat=0 / constrained_intra=0 / bframes=10 / b_pyramid=2 / b_adapt=2 / b_bias=0 / direct=3 / weightb=1 / open_gop=0 / weightp=2 / keyint=240 / keyint_min=23 / scenecut=40 / intra_refresh=0 / rc=2pass / mbtree=0 / bitrate=3268 / ratetol=1.0 / qcomp=0.60 / qpmin=0 / qpmax=69 / qpstep=4 / cplxblur=20.0 / qblur=0.5 / ip_ratio=1.40 / pb_ratio=1.30 / aq=1:1.00

Язык : English

Default : Да

Forced : Нет



Аудио #1

Идентификатор : 2

Формат : AC-3

Формат/Информация : Audio Coding 3

Коммерческое название : Dolby Digital

Идентификатор кодека : A_AC3

Продолжительность : 1 ч. 58 м.

Вид битрейта : Постоянный

Битрейт : 448 Кбит/сек

Каналы : 6 каналов

ChannelLayout : L R C LFE Ls Rs

Частота : 48,0 КГц

Частота кадров : 31,250 кадров/сек (1536 SPF)

Метод сжатия : С потерями

Размер потока : 381 Мбайт (9%)

Заголовок : Blu-ray EUR

Язык : Russian

Default : Да

Forced : Да



Аудио #2

Идентификатор : 3

Формат : AC-3

Формат/Информация : Audio Coding 3

Коммерческое название : Dolby Digital

Идентификатор кодека : A_AC3

Продолжительность : 1 ч. 58 м.

Вид битрейта : Постоянный

Битрейт : 192 Кбит/сек

Каналы : 2 канала

ChannelLayout : L R

Частота : 48,0 КГц

Частота кадров : 31,250 кадров/сек (1536 SPF)

Метод сжатия : С потерями

Размер потока : 163 Мбайт (4%)

Заголовок : MVO | HDRezka Studio

Язык : Russian

Default : Нет

Forced : Нет



Аудио #3

Идентификатор : 4

Формат : AC-3

Формат/Информация : Audio Coding 3

Коммерческое название : Dolby Digital

Идентификатор кодека : A_AC3

Продолжительность : 1 ч. 58 м.

Вид битрейта : Постоянный

Битрейт : 448 Кбит/сек

Каналы : 6 каналов

ChannelLayout : L R C LFE Ls Rs

Частота : 48,0 КГц

Частота кадров : 31,250 кадров/сек (1536 SPF)

Метод сжатия : С потерями

Размер потока : 381 Мбайт (9%)

Заголовок : AVO | Гаевский

Язык : Russian

Default : Нет

Forced : Нет



Аудио #4

Идентификатор : 5

Формат : AC-3

Формат/Информация : Audio Coding 3

Коммерческое название : Dolby Digital

Идентификатор кодека : A_AC3

Продолжительность : 1 ч. 58 м.

Вид битрейта : Постоянный

Битрейт : 448 Кбит/сек

Каналы : 6 каналов

ChannelLayout : L R C LFE Ls Rs

Частота : 48,0 КГц

Частота кадров : 31,250 кадров/сек (1536 SPF)

Метод сжатия : С потерями

Размер потока : 381 Мбайт (9%)

Заголовок : AVO | zamez

Язык : Russian

Default : Нет

Forced : Нет



Аудио #5

Идентификатор : 6

Формат : AC-3

Формат/Информация : Audio Coding 3

Коммерческое название : Dolby Digital

Идентификатор кодека : A_AC3

Продолжительность : 1 ч. 58 м.

Вид битрейта : Постоянный

Битрейт : 448 Кбит/сек

Каналы : 6 каналов

ChannelLayout : L R C LFE Ls Rs

Частота : 48,0 КГц

Частота кадров : 31,250 кадров/сек (1536 SPF)

Метод сжатия : С потерями

Размер потока : 381 Мбайт (9%)

Язык : English

Default : Нет

Forced : Нет



Текст #1

Идентификатор : 7

Формат : UTF-8

Идентификатор кодека : S_TEXT/UTF8

Идентификатор кодека/Информация : UTF-8 Plain Text

Продолжительность : 1 ч. 31 м.

Битрейт : 1 бит/сек

ElementCount : 25

Размер потока : 1,30 Кбайт (0%)

Заголовок : Forced

Язык : Russian

Default : Да

Forced : Да



Текст #2

Идентификатор : 8

Формат : UTF-8

Идентификатор кодека : S_TEXT/UTF8

Идентификатор кодека/Информация : UTF-8 Plain Text

Продолжительность : 1 ч. 49 м.

Битрейт : 57 бит/сек

ElementCount : 837

Размер потока : 45,7 Кбайт (0%)

Заголовок : Full

Язык : Russian

Default : Нет

Forced : Нет



Текст #3

Идентификатор : 9

Формат : UTF-8

Идентификатор кодека : S_TEXT/UTF8

Идентификатор кодека/Информация : UTF-8 Plain Text

Продолжительность : 1 ч. 45 м.

Битрейт : 35 бит/сек

ElementCount : 937

Размер потока : 27,1 Кбайт (0%)

Заголовок : Full

Язык : English

Default : Нет

Forced : Нет



Текст #4

Идентификатор : 10

Формат : UTF-8

Идентификатор кодека : S_TEXT/UTF8

Идентификатор кодека/Информация : UTF-8 Plain Text

Продолжительность : 1 ч. 45 м.

Битрейт : 40 бит/сек

ElementCount : 1100

Размер потока : 31,2 Кбайт (0%)

Заголовок : SDH

Язык : English

Default : Нет

Forced : Нет



Меню

00:00:00.000 : en:Chapter 01

00:04:59.424 : en:Chapter 02

00:08:19.374 : en:Chapter 03

00:13:26.639 : en:Chapter 04

00:16:38.789 : en:Chapter 05

00:23:32.494 : en:Chapter 06

00:30:28.660 : en:Chapter 07

00:35:34.549 : en:Chapter 08

00:42:25.376 : en:Chapter 09

00:51:34.091 : en:Chapter 10

00:56:36.310 : en:Chapter 11

01:02:29.079 : en:Chapter 12

01:06:33.573 : en:Chapter 13

01:12:04.320 : en:Chapter 14

01:19:45.197 : en:Chapter 15

01:28:47.822 : en:Chapter 16

01:33:43.451 : en:Chapter 17

01:38:11.594 : en:Chapter 18

01:41:43.681 : en:Chapter 19

01:49:46.580 : en:Chapter 20





Скриншоты

Discussion

Comments 0

Post Your Comment

Files in this torrent

FILENAMESIZE
1917.2019.Lic.BDRip.4.37Gb.x264.mkv4.4 GB

Alternative Torrents for 'Lic'.

TORRENT NAMEADDEDSIZESEEDSPEERSHEALTH
6/25/202011.1 GB588
6/17/202012.7 GB272
6/25/20202.9 GB204
6/25/20201.5 GB195
6/27/2020738 MB92
6/27/2020783 MB24
6/15/2020722 MB10
Today576 MB00
6/13/20204 GB00
6/13/20201.5 GB00
6/13/20202.9 GB00
6/13/202010.4 GB00
6/11/202012.8 GB00
6/9/202023.3 GB00
6/4/20205.8 GB00