1917 2019 BDRip 1080p 6xRus Eng

Torrent Details


1917 2019 BDRip 1080p 6xRus Eng

NAME
1917 2019 BDRip 1080p 6xRus Eng.torrent
CATEGORY
Movies
INFOHASH
efcf2a15f45cfeb91df798bd0a0014cc0db17e72
SIZE
9.6 GB in 1 file
ADDED
Uploaded on 21-05-2020 by our crawler pet called "Spidey".
SWARM
0 seeders & 0 peers
RATING
No votes yet.

Please login to vote for this torrent.


Description

Информация о фильме

Название: 1917

Оригинальное название: 1917

Год выхода: 2019

Жанр: военный, боевик, драма, история

Режиссер: Сэм Мендес

В ролях: Джордж Маккэй, Дин-Чарльз Чепмен, Марк Стронг, Эндрю Скотт, Ричард Мэдден, Клэр Дюбюрк, Колин Фёрт, Бенедикт Камбербэтч, Дэниэл Мейс, Эдриан Скарборо



О фильме: 6 апреля 1917 года, разгар Первой мировой войны, Западный фронт на севере Франции. Британский генерал поручает капралу Блэйку и его сослуживцу смертельно опасную миссию. Они должны пересечь вражескую территорию, вроде бы оставленную германскими войсками, и доставить приказ об отмене наступления во 2-й батальон Девонширского полка, иначе 1600 солдат попадут в ловушку противника, в том числе и брат Блэйка.







Страна: Великобритания, США

Студия: Amblin Partners, DreamWorks, Neal Street Productions

Продолжительность: 01:58:58

Перевод: Профессиональный (дублированный), Профессиональный (многоголосый, закадровый), Авторский (одноголосый, закадровый)



Файл

Качество: BDRip 1080p | qqss44

Формат: Matroska

Видео: 1920x802 at 23.976 fps, x264, ~8700 kbps avg

Аудио#1: Russian: 48 kHz, AC3, 3/2 (L,C,R,l,r) + LFE ch, ~448 kbps avg |Дубляж, Blu-ray EUR|

Аудио#2: Russian: 48 kHz, AC3, 2/0 (L,R) ch, ~192 kbps avg |Многоголосый закадровый, HDrezka Studio|

Аудио#3: Russian: 48 kHz, AC3, 3/2 (L,C,R,l,r) + LFE ch, ~448 kbps avg |Авторский, Ю.Сербин|

Аудио#4: Russian: 48 kHz, AC3, 3/2 (L,C,R,l,r) + LFE ch, ~448 kbps avg |Авторский, Е.Гаевский|

Аудио#5: Russian: 48 kHz, AC3, 3/2 (L,C,R,l,r) + LFE ch, ~448 kbps avg |Авторский, В.Назаров|

Аудио#6: Russian: 48 kHz, AC3, 3/2 (L,C,R,l,r) + LFE ch, ~448 kbps avg |Авторский, В.Замез|

Аудио#7: English: 48 kHz, AC3, 3/2 (L,C,R,l,r) + LFE ch, ~448 kbps avg

Субтитры: Russian (Forced, Full), English (Full, SDH)



***Сохранены оригинальные главы

***Внимание! Субтитры и перевод Е.Гаевского содержат нецензурную брань!



ДополнительноПеревод Ю.Сербина доступен благодаря пользователям форумов E180: oleg-k, oldeuboi, chontvari, luka69, Redlline, barvinok13, planshetist, Gross1978, dir, пуля, kvarta7, uchitel538, литти_07, Evromaster, Dyermaker, Ramis, Dervish, aka Frid. TeamHD: digitus, exact, ilfat1975, podorov92, zlodei24, alexeycezar, shmidd, Jonnikl, Bacchus, CallistyaniN. RuTracker: kikoru1, Andresofff, apollion2007.

Перевод В.Назарова доступен благодаря участникам TeamHD: unitedbits, goriathid, alexeycezar, digitus. E180: Serene, Evromaster, chontvari, Nadoelo, donlego33, kiruxa-k, uchitel538, planshetist, matrox, Gross1978, ZLODEY, 2vova2, Dyermaker, литти_07, phaeton77, пуля, Lee Ray, pestel.

Перевод Е.Гаевского доступен благодаря: Mednik, potroks, Omen, zav25, Loki1982, mestreo2110, dikii, iVov4ik, Mandor1972, stimco.MediaInfoОбщее

Уникальный идентификатор : 231848345764252441959640556157576375135 (0xAE6C5DFE9E087E86BD3BA43A24436B5F)

Полное имя : 1917.2019.BDRip.1080p.6xRus.Eng.mkv

Формат : Matroska

Версия формата : Version 2

Размер файла : 9,61 Гбайт

Продолжительность : 1 ч. 58 м.

Общий поток : 11,6 Мбит/сек

Название фильма : 1917 / 1917 (2019)

Дата кодирования : UTC 2020-05-21 15:15:23

Программа кодирования : mkvmerge v5.8.0 ('No Sleep / Pillow') built on Sep 2 2012 15:37:04

Библиотека кодирования : libebml v1.2.3 + libmatroska v1.3.0



Видео

Идентификатор : 1

Формат : AVC

Формат/Информация : Advanced Video Codec

Профиль формата : [email protected]

Настройки формата : CABAC / 5 Ref Frames

Параметр CABAC формата : Да

Параметр RefFrames формата : 5 кадров

Идентификатор кодека : V_MPEG4/ISO/AVC

Продолжительность : 1 ч. 58 м.

Битрейт : 8688 Кбит/сек

Ширина : 1920 пикселей

Высота : 802 пикселя

Соотношение сторон : 2,40:1

Режим частоты кадров : Постоянный

Частота кадров : 23,976 (24000/1001) кадра/сек

Цветовое пространство : YUV

Субдискретизация насыщенности : 4:2:0

Битовая глубина : 8 бит

Тип развёртки : Прогрессивная

Бит/(Пиксели*Кадры) : 0.235

Размер потока : 7,03 Гбайт (73%)

Библиотека кодирования : x264 core 152 r2851 ba24899

Настройки программы : cabac=1 / ref=5 / deblock=1:-1:-1 / analyse=0x3:0x113 / me=umh / subme=11 / psy=1 / psy_rd=1.00:0.00 / mixed_ref=1 / me_range=32 / chroma_me=1 / trellis=2 / 8x8dct=1 / cqm=0 / deadzone=21,11 / fast_pskip=0 / chroma_qp_offset=-2 / threads=12 / lookahead_threads=2 / sliced_threads=0 / nr=0 / decimate=0 / interlaced=0 / bluray_compat=0 / constrained_intra=0 / bframes=9 / b_pyramid=2 / b_adapt=2 / b_bias=0 / direct=3 / weightb=1 / open_gop=0 / weightp=2 / keyint=250 / keyint_min=23 / scenecut=40 / intra_refresh=0 / rc_lookahead=40 / rc=2pass / mbtree=0 / bitrate=8688 / ratetol=1.0 / qcomp=0.72 / qpmin=0 / qpmax=69 / qpstep=4 / cplxblur=20.0 / qblur=0.5 / vbv_maxrate=50000 / vbv_bufsize=62500 / nal_hrd=none / filler=0 / ip_ratio=1.40 / pb_ratio=1.30 / aq=3:0.90

Язык : English

Default : Да

Forced : Нет



Аудио #1

Идентификатор : 2

Формат : AC-3

Формат/Информация : Audio Coding 3

Коммерческое название : Dolby Digital

Идентификатор кодека : A_AC3

Продолжительность : 1 ч. 58 м.

Вид битрейта : Постоянный

Битрейт : 448 Кбит/сек

Каналы : 6 каналов

ChannelLayout : L R C LFE Ls Rs

Частота : 48,0 КГц

Частота кадров : 31,250 кадров/сек (1536 SPF)

Метод сжатия : С потерями

Размер потока : 381 Мбайт (4%)

Заголовок : Blu-ray EUR

Язык : Russian

ServiceKind/String : Complete Main

Default : Да

Forced : Нет



Аудио #2

Идентификатор : 3

Формат : AC-3

Формат/Информация : Audio Coding 3

Коммерческое название : Dolby Digital

Идентификатор кодека : A_AC3

Продолжительность : 1 ч. 58 м.

Вид битрейта : Постоянный

Битрейт : 192 Кбит/сек

Каналы : 2 канала

ChannelLayout : L R

Частота : 48,0 КГц

Частота кадров : 31,250 кадров/сек (1536 SPF)

Метод сжатия : С потерями

Размер потока : 163 Мбайт (2%)

Заголовок : HDrezka Studio

Язык : Russian

ServiceKind/String : Complete Main

Default : Нет

Forced : Нет



Аудио #3

Идентификатор : 4

Формат : AC-3

Формат/Информация : Audio Coding 3

Коммерческое название : Dolby Digital

Идентификатор кодека : A_AC3

Продолжительность : 1 ч. 58 м.

Вид битрейта : Постоянный

Битрейт : 448 Кбит/сек

Каналы : 6 каналов

ChannelLayout : L R C LFE Ls Rs

Частота : 48,0 КГц

Частота кадров : 31,250 кадров/сек (1536 SPF)

Метод сжатия : С потерями

Размер потока : 381 Мбайт (4%)

Заголовок : Ю.Сербин

Язык : Russian

ServiceKind/String : Complete Main

Default : Нет

Forced : Нет



Аудио #4

Идентификатор : 5

Формат : AC-3

Формат/Информация : Audio Coding 3

Коммерческое название : Dolby Digital

Идентификатор кодека : A_AC3

Продолжительность : 1 ч. 58 м.

Вид битрейта : Постоянный

Битрейт : 448 Кбит/сек

Каналы : 6 каналов

ChannelLayout : L R C LFE Ls Rs

Частота : 48,0 КГц

Частота кадров : 31,250 кадров/сек (1536 SPF)

Метод сжатия : С потерями

Размер потока : 381 Мбайт (4%)

Заголовок : Е.Гаевский

Язык : Russian

ServiceKind/String : Complete Main

Default : Нет

Forced : Нет



Аудио #5

Идентификатор : 6

Формат : AC-3

Формат/Информация : Audio Coding 3

Коммерческое название : Dolby Digital

Идентификатор кодека : A_AC3

Продолжительность : 1 ч. 58 м.

Вид битрейта : Постоянный

Битрейт : 448 Кбит/сек

Каналы : 6 каналов

ChannelLayout : L R C LFE Ls Rs

Частота : 48,0 КГц

Частота кадров : 31,250 кадров/сек (1536 SPF)

Метод сжатия : С потерями

Размер потока : 381 Мбайт (4%)

Заголовок : В.Назаров

Язык : Russian

ServiceKind/String : Complete Main

Default : Нет

Forced : Нет



Аудио #6

Идентификатор : 7

Формат : AC-3

Формат/Информация : Audio Coding 3

Коммерческое название : Dolby Digital

Идентификатор кодека : A_AC3

Продолжительность : 1 ч. 58 м.

Вид битрейта : Постоянный

Битрейт : 448 Кбит/сек

Каналы : 6 каналов

ChannelLayout : L R C LFE Ls Rs

Частота : 48,0 КГц

Частота кадров : 31,250 кадров/сек (1536 SPF)

Метод сжатия : С потерями

Размер потока : 381 Мбайт (4%)

Заголовок : В.Замез

Язык : Russian

ServiceKind/String : Complete Main

Default : Нет

Forced : Нет



Аудио #7

Идентификатор : 8

Формат : AC-3

Формат/Информация : Audio Coding 3

Коммерческое название : Dolby Digital

Идентификатор кодека : A_AC3

Продолжительность : 1 ч. 58 м.

Вид битрейта : Постоянный

Битрейт : 448 Кбит/сек

Каналы : 6 каналов

ChannelLayout : L R C LFE Ls Rs

Частота : 48,0 КГц

Частота кадров : 31,250 кадров/сек (1536 SPF)

Метод сжатия : С потерями

Размер потока : 381 Мбайт (4%)

Язык : English

ServiceKind/String : Complete Main

Default : Нет

Forced : Нет



Текст #1

Идентификатор : 9

Формат : UTF-8

Идентификатор кодека : S_TEXT/UTF8

Идентификатор кодека/Информация : UTF-8 Plain Text

Заголовок : Forced

Язык : Russian

Default : Да

Forced : Нет



Текст #2

Идентификатор : 10

Формат : UTF-8

Идентификатор кодека : S_TEXT/UTF8

Идентификатор кодека/Информация : UTF-8 Plain Text

Заголовок : Full

Язык : Russian

Default : Нет

Forced : Нет



Текст #3

Идентификатор : 11

Формат : UTF-8

Идентификатор кодека : S_TEXT/UTF8

Идентификатор кодека/Информация : UTF-8 Plain Text

Заголовок : Full

Язык : English

Default : Нет

Forced : Нет



Текст #4

Идентификатор : 12

Формат : UTF-8

Идентификатор кодека : S_TEXT/UTF8

Идентификатор кодека/Информация : UTF-8 Plain Text

Заголовок : SDH

Язык : English

Default : Нет

Forced : Нет



Меню

00:00:00.000 : en:Chapter 01

00:04:59.424 : en:Chapter 02

00:08:19.374 : en:Chapter 03

00:13:26.639 : en:Chapter 04

00:16:38.789 : en:Chapter 05

00:23:32.494 : en:Chapter 06

00:30:28.660 : en:Chapter 07

00:35:34.549 : en:Chapter 08

00:42:25.376 : en:Chapter 09

00:51:34.091 : en:Chapter 10

00:56:36.310 : en:Chapter 11

01:02:29.079 : en:Chapter 12

01:06:33.573 : en:Chapter 13

01:12:04.320 : en:Chapter 14

01:19:45.197 : en:Chapter 15

01:28:47.822 : en:Chapter 16

01:33:43.451 : en:Chapter 17

01:38:11.594 : en:Chapter 18

01:41:43.681 : en:Chapter 19

01:49:46.580 : en:Chapter 20Скриншоты

Discussion

Comments 0

Post Your Comment

Files in this torrent

FILENAMESIZE
1917.2019.BDRip.1080p.6xRus.Eng.mkv9.6 GB

Alternative Torrents for 'xRus Eng'.

TORRENT NAMEADDEDSIZESEEDSPEERSHEALTH
6/24/20201.1 GB556322
6/22/2020984 MB332159
6/22/20201.1 GB19923
6/28/2020768 MB175314
6/22/2020426 MB15888
6/28/20205.8 GB153398
6/28/20203.1 GB13753
6/27/20201.1 GB13631
6/28/2020413 MB135276
6/28/20204.4 GB133131
6/24/2020951 MB13054
6/28/20201.1 GB12465
6/27/202019.7 GB12060
6/22/20202.3 GB10330
6/27/202033.3 GB92208