Billions (2016) S05E03 Beg, Bribe, Bully (1080p AMZN Webrip X265 10bit EAC3 5.1 - DNU) [TAoE]

Torrent Details

Billions (2016) S05E03 Beg, Bribe, Bully (1080p AMZN Webrip x265 10bit EAC3 5.1 - DNU) <span style=color:#fc9c6d>[TAoE]</span>
Billions (2016) S05E03 Beg, Bribe, Bully (1080p AMZN Webrip x265 10bit EAC3 5.1 - DNU) <span style=color:#fc9c6d>[TAoE]</span>

NAME
Billions (2016) S05E03 Beg, Bribe, Bully (1080p AMZN Webrip x265 10bit EAC3 5.1 - DNU) [TAoE].torrent
CATEGORY
Television
INFOHASH
08057f2ce39d15c18aae1ea5a17087980f84e999
SIZE
984 MB in 5 files
ADDED
Uploaded on 22-05-2020 by our crawler pet called "Spidey".
SWARM
0 seeders & 0 peers
RATING
No votes yet.

Please login to vote for this torrent.


Description









Billions (2016)





























Media Information



General

Unique ID                                : 7832597059815259130223791527647292671 (0x5E480D9B59B079380D6AB64F0D0ACFF)

Complete name                            : Billions (2016) S05E03 Beg, Bribe, Bully (1080p AMZN Webrip x265 10bit EAC3 5.1 - DNU) [TAoE].mkv

Format                                   : Matroska

Format version                           : Version 4

File size                                : 982 MiB

Duration                                 : 58 min 5 s

Overall bit rate                         : 2 364 kb/s

Movie name                               : Billions (2016) S05E03 Beg, Bribe, Bully (1080p AMZN Webrip x265 10bit EAC3 5.1 - DNU) [TAoE].mkv

Writing application                      : Lavf58.29.100

Writing library                          : Lavf58.29.100

ErrorDetectionType                       : Per level 1



Video

ID                                       : 1

Format                                   : HEVC

Format/Info                              : High Efficiency Video Coding

Format profile                           : Main [email protected]@Main

Codec ID                                 : V_MPEGH/ISO/HEVC

Duration                                 : 58 min 5 s

Bit rate                                 : 1 721 kb/s

Width                                    : 1 920 pixels

Height                                   : 1 080 pixels

Display aspect ratio                     : 16:9

Frame rate mode                          : Constant

Frame rate                               : 23.976 (24000/1001) FPS

Color space                              : YUV

Chroma subsampling                       : 4:2:0

Bit depth                                : 10 bits

Bits/(Pixel*Frame)                       : 0.035

Stream size                              : 715 MiB (73%)

Writing library                          : x265 3.3+1-f94b0d32737d:[Mac OS X][clang 11.0.0][64 bit] 10bit

Encoding settings                        : cpuid=1111039 / frame-threads=2 / wpp / no-pmode / no-pme / no-psnr / no-ssim / log-level=2 / input-csp=1 / input-res=1920x1080 / interlace=0 / total-frames=0 / level-idc=0 / high-tier=1 / uhd-bd=0 / ref=4 / no-allow-non-conformance / no-repeat-headers / annexb / no-aud / no-hrd / info / hash=0 / no-temporal-layers / open-gop / min-keyint=23 / keyint=250 / gop-lookahead=0 / bframes=8 / b-adapt=2 / b-pyramid / bframe-bias=0 / rc-lookahead=80 / lookahead-slices=4 / scenecut=40 / hist-scenecut=0 / radl=0 / no-splice / no-intra-refresh / ctu=64 / min-cu-size=8 / no-rect / no-amp / max-tu-size=32 / tu-inter-depth=1 / tu-intra-depth=1 / limit-tu=0 / rdoq-level=2 / dynamic-rd=0.00 / no-ssim-rd / signhide / no-tskip / nr-intra=0 / nr-inter=0 / no-constrained-intra / no-strong-intra-smoothing / max-merge=3 / limit-refs=3 / limit-modes / me=3 / subme=5 / merange=57 / temporal-mvp / no-frame-dup / no-hme / weightp / no-weightb / no-analyze-src-pics / deblock=0:0 / sao / no-sao-non-deblock / rd=4 / selective-sao=4 / no-early-skip / rskip / no-fast-intra / no-tskip-fast / no-cu-lossless / no-b-intra / no-splitrd-skip / rdpenalty=0 / psy-rd=1.30 / psy-rdoq=2.00 / no-rd-refine / no-lossless / cbqpoffs=0 / crqpoffs=0 / rc=crf / crf=20.0 / qcomp=0.60 / qpstep=4 / stats-write=0 / stats-read=0 / ipratio=1.40 / pbratio=1.30 / aq-mode=4 / aq-strength=1.10 / cutree / zone-count=0 / no-strict-cbr / qg-size=32 / no-rc-grain / qpmax=69 / qpmin=0 / no-const-vbv / sar=1 / overscan=0 / videoformat=5 / range=0 / colorprim=2 / transfer=2 / colormatrix=2 / chromaloc=0 / display-window=0 / cll=0,0 / min-luma=0 / max-luma=1023 / log2-max-poc-lsb=8 / vui-timing-info / vui-hrd-info / slices=1 / no-opt-qp-pps / no-opt-ref-list-length-pps / no-multi-pass-opt-rps / scenecut-bias=0.05 / hist-threshold=0.01 / no-opt-cu-delta-qp / no-aq-motion / no-hdr10 / no-hdr10-opt / no-dhdr10-opt / no-idr-recovery-sei / analysis-reuse-level=0 / analysis-save-reuse-level=0 / analysis-load-reuse-level=0 / scale-factor=0 / refine-intra=0 / refine-inter=0 / refine-mv=1 / refine-ctu-distortion=0 / no-limit-sao / ctu-info=0 / no-lowpass-dct / refine-analysis-type=0 / copy-pic=1 / max-ausize-factor=1.0 / no-dynamic-refine / no-single-sei / no-hevc-aq / no-svt / no-field / qp-adaptation-range=1.00 / no-scenecut-aware-qpconformance-window-offsets / right=0 / bottom=0

Default                                  : Yes

Forced                                   : No

Color range                              : Limited



Audio

ID                                       : 2

Format                                   : E-AC-3

Format/Info                              : Enhanced AC-3

Commercial name                          : Dolby Digital Plus

Codec ID                                 : A_EAC3

Duration                                 : 58 min 5 s

Bit rate mode                            : Constant

Bit rate                                 : 640 kb/s

Channel(s)                               : 6 channels

Channel layout                           : L R C LFE Ls Rs

Sampling rate                            : 48.0 kHz

Frame rate                               : 31.250 FPS (1536 SPF)

Bit depth                                : 32 bits

Compression mode                         : Lossy

Delay relative to video                  : 18 ms

Stream size                              : 266 MiB (27%)

Language                                 : English

Service kind                             : Complete Main

Default                                  : Yes

Forced                                   : No



Text

ID                                       : 3

Format                                   : UTF-8

Codec ID                                 : S_TEXT/UTF8

Codec ID/Info                            : UTF-8 Plain Text

Duration                                 : 57 min 56 s

Bit rate                                 : 96 b/s

Count of elements                        : 1344

Stream size                              : 40.8 KiB (0%)

Title                                    : SDH

Language                                 : English

Default                                  : No

Forced                                   : No













Source

1080p AMZN WEBRip NTb



Hello everyone,

We are TAoE, a small team of passionate encoders who love encoding. We try our best to provide you with high quality releases.



Requests for movies and shows are welcome.

We have a form for encode requests which can be found here

Encode requests form

submit your request and it will be added to our encoding request list

You can view our encoding request list here

Encode requests list





When or if we encode it will depend on if we can obtain a good source to encode with and

if one of the TAoE encoders chooses to encode it. Unfortunately we are not able to encode everything,

new members are welcome as that helps us encode more content!



If you would like to join TAoE submit your request here!

TAoE member applications form











.........................................................................................................................................

Discussion

Comments 0

Post Your Comment

Files in this torrent

FILENAMESIZE
.DS_Store6 KB
Background.jpg887.8 KB
Banner.jpg164.3 KB
Billions (2016) S05E03 Beg, Bribe, Bully (1080p AMZN Webrip x265 10bit EAC3 5.1 - DNU) [TAoE].mkv982.4 MB
Season 5.jpg57.9 KB

Alternative Torrents for 'Billions Beg Bribe Bully bit EAC DNU'.

TORRENT NAMEADDEDSIZESEEDSPEERSHEALTH
Today1.7 GB2818
7/3/20201.1 GB203
6/26/20201.1 GB201
6/27/20201.3 GB183
6/25/20205 GB180
6/24/2020624 MB173
6/22/20201.1 GB173
6/30/20209.7 GB169
6/26/2020624 MB152
6/28/20202.1 GB140
6/30/20201.3 GB132
6/26/20203.3 GB131
6/26/20203.1 GB131
6/24/202011.1 GB1314
7/2/20201.1 GB107